<?xml version="1.0" standalone="no"?>
<!DOCTYPE svg PUBLIC "-//W3C//DTD SVG 1.1//EN" "http://www.w3.org/Graphics/SVG/1.1/DTD/svg11.dtd" >
<svg xmlns="http://www.w3.org/2000/svg" xmlns:xlink="http://www.w3.org/1999/xlink" version="1.1">
<metadata>
Created by FontForge 20201107 at Thu Apr 24 15:28:32 2025
 By 
(c) Darius Type 2025. All Rights Reserved
</metadata>
<defs>
<font id="Darius" horiz-adv-x="645" >
  <font-face 
    font-family="Darius"
    font-weight="400"
    font-stretch="normal"
    units-per-em="1000"
    panose-1="2 0 6 0 0 0 0 0 0 0"
    ascent="800"
    descent="-200"
    x-height="425"
    cap-height="680"
    bbox="-60 -256 948 893"
    underline-thickness="50"
    underline-position="-100"
    unicode-range="U+001D-FB02"
  />
<missing-glyph horiz-adv-x="500" 
d="M451 0h-402v700h402v-700zM427 24v652h-354v-652h354zM233 222h-15q-17 47 -17 72q0 37 39 106q40 70 40 106q0 55 -60 60q-18 0 -31.5 -7t-29.5 -20v22q41 35 83 35q43 0 71 -22.5t28 -62.5q0 -25 -12 -50t-41 -62q-31 -39 -49 -64q-17 -25 -17 -48q0 -19 11 -65z
M228 104q-6 0 -10 5l-30 35q-3 4 -3 8q0 5 5 11l28 28q5 5 10 5q4 0 10 -5l28 -29q4 -6 4 -10q0 -6 -5 -11l-27 -30q-7 -7 -10 -7z" />
    <glyph glyph-name=".notdef" horiz-adv-x="500" 
d="M451 0h-402v700h402v-700zM427 24v652h-354v-652h354zM233 222h-15q-17 47 -17 72q0 37 39 106q40 70 40 106q0 55 -60 60q-18 0 -31.5 -7t-29.5 -20v22q41 35 83 35q43 0 71 -22.5t28 -62.5q0 -25 -12 -50t-41 -62q-31 -39 -49 -64q-17 -25 -17 -48q0 -19 11 -65z
M228 104q-6 0 -10 5l-30 35q-3 4 -3 8q0 5 5 11l28 28q5 5 10 5q4 0 10 -5l28 -29q4 -6 4 -10q0 -6 -5 -11l-27 -30q-7 -7 -10 -7z" />
    <glyph glyph-name=".notdef" horiz-adv-x="500" 
d="M451 0h-402v700h402v-700zM427 24v652h-354v-652h354zM233 222h-15q-17 47 -17 72q0 37 39 106q40 70 40 106q0 55 -60 60q-18 0 -31.5 -7t-29.5 -20v22q41 35 83 35q43 0 71 -22.5t28 -62.5q0 -25 -12 -50t-41 -62q-31 -39 -49 -64q-17 -25 -17 -48q0 -19 11 -65z
M228 104q-6 0 -10 5l-30 35q-3 4 -3 8q0 5 5 11l28 28q5 5 10 5q4 0 10 -5l28 -29q4 -6 4 -10q0 -6 -5 -11l-27 -30q-7 -7 -10 -7z" />
    <glyph glyph-name=".null" horiz-adv-x="0" 
 />
    <glyph glyph-name="nonmarkingreturn" horiz-adv-x="333" 
 />
    <glyph glyph-name="space" unicode=" " horiz-adv-x="200" 
 />
    <glyph glyph-name="space" unicode="&#xa0;" horiz-adv-x="200" 
 />
    <glyph glyph-name="exclam" unicode="!" horiz-adv-x="177" 
 />
    <glyph glyph-name="quotedbl" unicode="&#x22;" horiz-adv-x="318" 
 />
    <glyph glyph-name="numbersign" unicode="#" horiz-adv-x="720" 
 />
    <glyph glyph-name="dollar" unicode="$" horiz-adv-x="502" 
 />
    <glyph glyph-name="percent" unicode="%" horiz-adv-x="845" 
 />
    <glyph glyph-name="ampersand" unicode="&#x26;" horiz-adv-x="546" 
d="M464 126v0l45 -56q9 -12 9 -27q0 -17 -10.5 -29t-27.5 -14q-23 -1 -37 15v1l-38 48q-75 -59 -176 -64h-8q-79 0 -135 56t-56 135v13q1 7 2 15q17 100 106 145v0q9 4 19 8h-1l-24 30q-25 30 -34 69q-5 19 -5 39q0 33 12 61q19 49 61.5 79t96.5 30q71 0 120.5 -50
t49.5 -120v-4v-1q0 -62 -49 -114q-21 -16 -44 -25q-9 -4 -19 -9q-11 -6 -23 -11l-8 -4v0v0h-1q1 -1 18.5 -23t40.5 -50.5t41 -50.5l18 -22q26 46 26 102q0 19 15 31.5t36 9.5q15 -3 24.5 -15t9.5 -28q-2 -97 -54 -170zM249 594v0q-40 -9 -59.5 -42.5t-5.5 -72.5
q13 -27 35 -50q8 -9 16 -19q16 8 31 15q1 0 8 3.5l16 8t16 7.5l7 3q18 9 27 26q8 17 8 37q0 45 -39 72q-20 13 -46 13q-7 0 -14 -1zM292 93v0q5 2 10 5q14 6 27 14q3 2 5 3q10 6 19 13q-8 9 -16 19q-3 4 -7 9q-1 2 -19 24t-41 51t-41 51l-18 22l-45 -21q-56 -29 -60 -91v-1
q0 -61 54 -97q1 0 2 -1q33 -19 71 -15q30 3 59 15z" />
    <glyph glyph-name="quotesingle" unicode="'" horiz-adv-x="157" 
d="M78 680v0q20 0 34.5 -14.5t14.5 -34.5q0 -5 -1 -9v0l-3 -9v0v0l-19 -63l-1 -2q-7 -18 -25 -18q-17 0 -24 18l-1 2l-19 63v0v0l-3 9v0q-1 4 -1 9q0 20 14 34.5t34 14.5z" />
    <glyph glyph-name="parenleft" unicode="(" horiz-adv-x="335" 
d="M295 43v0q0 17 -12.5 29.5t-30.5 12.5q-53 0 -90 74.5t-37 180.5t37 180.5t90 74.5q18 0 30.5 12.5t12.5 29.5q0 18 -12.5 30.5t-30.5 12.5q-88 0 -150 -99.5t-62 -240.5t62 -240.5t150 -99.5q18 0 30.5 12.5t12.5 30.5z" />
    <glyph glyph-name="parenright" unicode=")" horiz-adv-x="415" 
d="M80 43v0q0 17 12.5 29.5t30.5 12.5q53 0 90 74.5t37 180.5t-37 180.5t-90 74.5q-18 0 -30.5 12.5t-12.5 29.5q0 18 12.5 30.5t30.5 12.5q88 0 150 -99.5t62 -240.5t-62 -240.5t-150 -99.5q-18 0 -30.5 12.5t-12.5 30.5z" />
    <glyph glyph-name="asterisk" unicode="*" horiz-adv-x="456" 
d="M383 587v0q18 0 30.5 -12.5t12.5 -29.5q0 -24 -22 -38l-111 -55l74 -99l3 -4q7 -10 7 -23q0 -18 -12.5 -30.5t-29.5 -12.5q-20 0 -33 15v0v0l-3 4l-29 38l-42 57l-43 -57l-28 -38l-3 -4v0v0q-13 -15 -33 -15q-17 0 -29.5 12.5t-12.5 30.5q0 13 7 23l3 4l74 99l-111 55
q-22 14 -22 38q0 17 12.5 29.5t30.5 12.5q8 0 16 -3l4 -2v0l92 -46v102q0 17 12.5 29.5t30.5 12.5v0v0q18 0 30 -12.5t12 -29.5v-102l93 46v0l4 2q8 3 16 3z" />
    <glyph glyph-name="plus" unicode="+" horiz-adv-x="505" 
d="M465 308v0q0 17 -12.5 29.5t-30.5 12.5h-127v127q0 18 -12.5 30.5t-30.5 12.5q-17 0 -29.5 -12.5t-12.5 -30.5v-127h-128q-17 0 -29.5 -12.5t-12.5 -29.5q0 -18 12.5 -30.5t29.5 -12.5h128v-127q0 -18 12.5 -30.5t29.5 -12.5q18 0 30.5 12.5t12.5 30.5v127h127
q18 0 30.5 12.5t12.5 30.5z" />
    <glyph glyph-name="comma" unicode="," horiz-adv-x="203" 
d="M163 49v0q0 20 -14.5 34t-34.5 14q-29 0 -44 -29v-1v0l-28 -65q-2 -5 -2 -10q0 -11 7.5 -19t18.5 -8q7 0 12 3l3 2l56 36q3 1 5 3q21 15 21 40z" />
    <glyph glyph-name="hyphen" unicode="-" horiz-adv-x="420" 
d="M380 217v0q0 18 -12.5 30.5t-30.5 12.5h-255q-17 0 -29.5 -12.5t-12.5 -30.5q0 -17 12.5 -29.5t29.5 -12.5h255q18 0 30.5 12.5t12.5 29.5z" />
    <glyph glyph-name="hyphen" unicode="&#xad;" horiz-adv-x="420" 
d="M380 217v0q0 18 -12.5 30.5t-30.5 12.5h-255q-17 0 -29.5 -12.5t-12.5 -30.5q0 -17 12.5 -29.5t29.5 -12.5h255q18 0 30.5 12.5t12.5 29.5z" />
    <glyph glyph-name="period" unicode="." horiz-adv-x="177" 
d="M137 48v0q0 20 -14.5 34.5t-34.5 14.5t-34 -14.5t-14 -34.5t14 -34t34 -14t34.5 14t14.5 34z" />
    <glyph glyph-name="slash" unicode="/" horiz-adv-x="392" 
d="M38 25v0l-1 -4q-7 -26 13 -45q14 -11 31 -9.5t29 15.5q4 5 7 10l1 4l241 662q7 26 -13 45q-15 12 -31.5 10.5t-28.5 -15.5q-6 -7 -8 -15z" />
    <glyph glyph-name="zero" unicode="0" horiz-adv-x="480" 
d="M370 637v0q85 -65 85 -169v-255q0 -105 -85 -170q-56 -43 -128 -43t-127 43q-85 65 -85 170v255q0 104 85 169q55 43 127 43t128 -43zM370 213v0v255q0 52 -37.5 89.5t-90.5 37.5t-90 -37.5t-37 -89.5v-255q0 -53 37 -90.5t90 -37.5t90.5 37.5t37.5 90.5z" />
    <glyph glyph-name="one" unicode="1" horiz-adv-x="284" 
d="M235 637v0q0 18 -12 30.5t-30 12.5t-30 -12l-13 -13l-157 -157q-13 -13 -13 -30q0 -18 12.5 -30.5t30.5 -12.5q17 0 30 13l97 97v-492q0 -18 12.5 -30.5t30.5 -12.5t30 12.5t12 30.5v594z" />
    <glyph glyph-name="two" unicode="2" horiz-adv-x="454" 
d="M447 43v0q0 17 -12.5 29.5t-30.5 12.5h-253l221 232q4 4 7 8q55 60 55 143q0 17 -3 35q-14 77 -72 127t-137 50q-88 0 -150.5 -62t-62.5 -150q0 -18 12.5 -30.5t30.5 -12.5t30 12.5t12 30.5q0 52 37.5 89.5t90.5 37.5t90 -37.5t37 -89.5q0 -50 -33 -86l-5 -5l-114 -120
l-163 -172l-12 -12q-13 -13 -13 -30q0 -18 12.5 -30.5t30.5 -12.5h352q18 0 30.5 12.5t12.5 30.5z" />
    <glyph glyph-name="three" unicode="3" horiz-adv-x="457" 
d="M421 222v0q0 6 -1 11q-4 35 -21 65q-11 18 -26 34q-5 4 -9 8q4 4 9 8q15 16 26 35q2 4 5 9q2 4 3 7q2 4 3 8q1 2 2 5q1 1 1 2v1l2 6l2 8v1l2 8q1 5 1 9v1q0 1 1 1v9q1 5 1 10q0 4 -1 9q-5 87 -65.5 145t-146.5 58q-58 0 -106 -28t-76 -76q-2 -2 -3 -4q-5 -9 -5 -19
q0 -18 12.5 -30.5t30.5 -12.5q16 0 28 11q5 4 9 10q0 1 1 3q40 61 109 61q49 0 84.5 -31.5t42.5 -79.5q1 -8 1 -16q0 -9 -1 -16q-7 -31 -30 -50q-19 -16 -45 -19h-71q-22 0 -35 -19q-5 -8 -7 -17v-7v-7q2 -9 7 -16q13 -19 35 -19h71q26 -4 45 -19q23 -19 29 -49l1 -1
q1 -8 1 -16q0 -9 -1 -17v0q-1 0 -1 -1q-7 -47 -42 -78.5t-84 -31.5q-70 0 -110 63q-3 6 -9 11v0q-12 11 -28 11q-18 0 -30.5 -12.5t-12.5 -29.5q0 -11 6 -21l2 -4q29 -47 76.5 -75t105.5 -28q84 0 143.5 55.5t68.5 139.5v8q1 5 1 10q0 4 -1 9z" />
    <glyph glyph-name="four" unicode="4" horiz-adv-x="424" 
d="M391 340v0q17 0 29.5 -12.5t12.5 -29.5q0 -18 -12.5 -30.5t-29.5 -12.5h-43v-212q0 -18 -12.5 -30.5t-29.5 -12.5q-18 0 -30.5 12.5t-12.5 30.5v212h-212q-18 0 -30.5 12.5t-12.5 30.5q0 13 7 23l3 4l11 15l234 312l7 9l3 4q13 15 33 15q17 0 29.5 -12.5t12.5 -30.5v-297
h43zM263 340v0v170l-127 -170h127z" />
    <glyph glyph-name="five" unicode="5" horiz-adv-x="477" 
d="M416 340v0q-31 42 -79 65q-42 20 -91 20h-42q-35 0 -60 25t-25 60v85h297q18 0 30.5 12.5t12.5 29.5q0 18 -12.5 30.5t-30.5 12.5h-340q-17 0 -29.5 -12.5t-12.5 -30.5v-127q0 -47 23 -85q18 -32 48 -53q7 -5 14 -9q38 -23 85 -23h42q53 0 90.5 -37.5t37.5 -89.5
q0 -53 -37.5 -90.5t-90.5 -37.5t-90 37.5t-37 90.5q0 17 -12.5 29.5t-30.5 12.5q-17 0 -29.5 -12.5t-12.5 -29.5q0 -105 85 -170q55 -43 127 -43q88 0 150.5 62.5t62.5 150.5q0 71 -43 127z" />
    <glyph glyph-name="six" unicode="6" horiz-adv-x="459" 
d="M455 255v0q4 -21 4 -42q0 -22 -4 -43q-2 -9 -4 -17v0q-11 -37 -34 -68q-19 -24 -43 -42q-30 -23 -68 -34v0q-8 -3 -17 -5q-20 -4 -42 -4t-43 4q-8 2 -17 5q-11 3 -21 7q-25 11 -47 27q-24 18 -42 42q-23 31 -34 68q-3 9 -4 17q-5 21 -5 43q0 21 2 42q1 12 3 24v0
q3 25 8 49q1 6 3 12q1 3 1 5q1 2 1 3q11 40 27 77v0v0v0v0v0q15 34 34 64l6 10q4 5 8 11q3 5 7 10q25 35 56 65l10 10l4 4l12 10q31 27 68 50q2 1 5 3q11 7 22 13q1 0 2 1q9 4 19 4q17 0 29.5 -12.5t12.5 -30.5q0 -23 -22 -37h-1q-4 -3 -8 -5h-1l-1 -1v0q-27 -15 -51 -34v0
q-1 0 -1 -1v0v0q-28 -22 -52 -48v0q-1 0 -1 -1l-2 -2q-16 -17 -29 -35l-1 -1v0v0v0q-16 -21 -29 -45v0q-1 -1 -1 -2t-1 -2q-4 -7 -7 -14q10 4 21 7q9 3 17 5q21 4 43 4t42 -4q9 -2 17 -5q38 -10 68 -34q24 -18 43 -42q23 -30 34 -68q2 -8 4 -17zM367 170v0q7 20 7 43
q0 22 -7 42q-2 6 -5 12q-20 41 -60 61v0q-6 3 -13 5q-20 7 -42 7q-23 0 -43 -7q-6 -2 -12 -5q-40 -20 -60 -60q-3 -7 -5 -13q-7 -17 -8 -37v-5v-6q1 -19 8 -37q2 -6 5 -12q20 -41 60 -60l12 -6q20 -7 43 -7q22 0 42 7q7 3 13 6q40 19 60 60q3 6 5 12z" />
    <glyph glyph-name="seven" unicode="7" horiz-adv-x="351" 
d="M365 637v0q0 18 -12.5 30.5t-30.5 12.5h-340q-17 0 -29.5 -12.5t-12.5 -30.5q0 -17 12.5 -29.5t29.5 -12.5h276l-230 -535v-1q-3 -8 -3 -16q0 -18 12.5 -30.5t29.5 -12.5q26 0 39 25l1 2l243 568l11 26q4 8 4 16z" />
    <glyph glyph-name="eight" unicode="8" horiz-adv-x="461" 
d="M362 389v0q94 -66 94 -176q0 -88 -62 -150.5t-151 -62.5q-88 0 -150 62.5t-62 150.5q0 110 94 176q-52 50 -52 121q0 70 50 120t120 50q71 0 120.5 -50t49.5 -120q0 -71 -51 -121zM159 510v0q0 -35 24.5 -60t59.5 -25q36 0 60.5 25t24.5 60t-24.5 60t-60.5 25
q-35 0 -59.5 -25t-24.5 -60zM243 85v0q53 0 90.5 37.5t37.5 90.5q0 52 -37.5 89.5t-90.5 37.5q-52 0 -89.5 -37.5t-37.5 -89.5q0 -53 37.5 -90.5t89.5 -37.5z" />
    <glyph glyph-name="nine" unicode="9" horiz-adv-x="456" 
d="M13 425v0q-4 21 -4 43q0 21 4 42q2 9 5 17v0q11 38 34 68q18 24 42 42q31 24 68 34v0q8 3 17 5q21 4 43 4q21 0 42 -4q9 -2 17 -5q11 -3 22 -7q25 -10 46 -27q24 -18 42 -42q24 -30 34 -68q3 -8 5 -17q4 -21 4 -42q0 -22 -2 -43l-2 -24v0q-3 -25 -9 -49q-1 -6 -3 -12
q0 -3 -1 -5q0 -2 -1 -3q-10 -40 -27 -77v0v0v0v0v0q-15 -33 -34 -64l-6 -10q-4 -5 -8 -11q-3 -5 -7 -10q-25 -35 -55 -65q-5 -5 -11 -10l-4 -4q-5 -5 -11 -10q-32 -27 -68 -50q-3 -1 -6 -3q-10 -6 -21 -12q-1 -1 -3 -1q-8 -5 -18 -5q-18 0 -30.5 12.5t-12.5 30.5q0 24 22 37
h1q4 3 9 5l1 1v0h1q26 15 50 34h1v1v0h1q28 22 52 48l1 1l2 2q15 17 29 35v1v0v0v0q16 22 29 45v1q1 0 1 1q1 1 1 2l8 14q-11 -4 -22 -7q-8 -3 -17 -5q-21 -4 -42 -4q-22 0 -43 4q-8 2 -17 5q-37 11 -68 34q-24 18 -42 42q-23 31 -34 68q-3 8 -5 17zM101 510v0
q-7 -20 -7 -42q0 -23 7 -43q3 -6 5 -12q20 -41 61 -60v0l12 -6q20 -7 43 -7q22 0 42 7q6 3 13 5q40 20 60 61q3 6 5 12q6 18 7 37v6v5q-1 20 -7 37q-2 6 -5 13q-20 40 -61 60q-6 3 -12 5q-20 7 -42 7q-23 0 -43 -7q-6 -3 -12 -5q-41 -20 -61 -61q-2 -6 -5 -12z" />
    <glyph glyph-name="colon" unicode=":" horiz-adv-x="177" 
d="M89 107v0q20 0 34 -14.5t14 -34.5t-14 -34t-34 -14t-34.5 14t-14.5 34t14.5 34.5t34.5 14.5zM89 338v0q-20 0 -34.5 14.5t-14.5 34.5t14.5 34t34.5 14t34 -14t14 -34t-14 -34.5t-34 -14.5z" />
    <glyph glyph-name="semicolon" unicode=";" horiz-adv-x="203" 
d="M114 107v0q20 0 34.5 -14t14.5 -34q0 -25 -21 -40q-2 -2 -4 -3l-57 -36l-3 -2q-5 -3 -12 -3q-11 0 -18.5 8t-7.5 19q0 5 2 10l28 65v0v1q15 29 44 29zM114 338v0q-20 0 -34 14.5t-14 34.5t14 34t34 14t34.5 -14t14.5 -34t-14.5 -34.5t-34.5 -14.5z" />
    <glyph glyph-name="less" unicode="&#x3c;" horiz-adv-x="505" 
d="M465 137v0q0 25 -22 38l-265 132l261 131l4 2q22 13 22 37q0 18 -12.5 30.5t-29.5 12.5q-9 0 -17 -3l-3 -2l-320 -160l-17 -8l-4 -2q-22 -14 -22 -38t22 -37l4 -2l17 -8l320 -160l3 -2q8 -3 17 -3q17 0 29.5 12.5t12.5 29.5z" />
    <glyph glyph-name="equal" unicode="=" horiz-adv-x="460" 
d="M103 350v0q-18 0 -30.5 12.5t-12.5 29.5q0 18 12.5 30.5t30.5 12.5h255q17 0 29.5 -12.5t12.5 -30.5q0 -17 -12.5 -29.5t-29.5 -12.5h-255zM358 265v0q17 0 29.5 -12.5t12.5 -30.5q0 -17 -12.5 -29.5t-29.5 -12.5h-255q-18 0 -30.5 12.5t-12.5 29.5q0 18 12.5 30.5
t30.5 12.5h255z" />
    <glyph glyph-name="greater" unicode="&#x3e;" horiz-adv-x="485" 
d="M40 137v0q0 25 22 38l265 132l-261 131l-4 2q-22 13 -22 37q0 18 12.5 30.5t29.5 12.5q9 0 17 -3l3 -2l320 -160l17 -8l3 -2q23 -14 23 -38t-22 -37l-4 -2l-17 -8l-320 -160l-3 -2q-8 -3 -17 -3q-17 0 -29.5 12.5t-12.5 29.5z" />
    <glyph glyph-name="question" unicode="?" horiz-adv-x="420" 
d="M253 675v0q56 -16 91.5 -61t35.5 -104q0 -18 -3 -36q-16 -66 -70 -104q-2 -1 -3 -2q-51 -36 -51 -98v-57q0 -18 -12.5 -30.5t-30.5 -12.5q-10 0 -18 4q-24 13 -24 39v61q1 36 13 69q22 57 72 93q2 2 4 3q1 0 1 1h0.5h0.5v0v0q36 27 36 70q0 47 -42 74q-19 11 -43 11
q-23 0 -42 -11q-43 -27 -43 -74q0 -18 -12 -30.5t-30 -12.5t-30.5 12.5t-12.5 30.5q0 59 36 104t92 61q20 5 42 5t43 -5zM210 97v0q20 0 34.5 -14.5t14.5 -34.5t-14.5 -34t-34.5 -14t-34 14t-14 34t14 34.5t34 14.5z" />
    <glyph glyph-name="at" unicode="@" horiz-adv-x="847" 
d="M827 212v0q0 118 -64 213q-33 48 -78 85q-32 26 -70 45q-40 20 -85 30q-41 10 -85 10h-43q-136 0 -240 -85q-45 -37 -78 -85q-26 -40 -42 -85q-22 -61 -22 -128t22 -127q16 -46 42 -85q53 -78 136 -124t182 -46h22l22 2q9 1 17 3h3q1 0 2 1q15 3 24 14.5t9 26.5
q0 27 -26 39q-8 4 -16 4q-4 0 -7 -1h-1h-1q-13 -2 -26 -3q-11 -1 -22 -1q-121 0 -208 85q-38 37 -60 85q-29 59 -29 127q0 69 29 128q22 48 60 85q87 85 208 85h43q44 0 85 -13q46 -13 85 -40q20 -15 38 -32q38 -37 61 -85q28 -59 28 -128q0 -55 -19 -105q-4 -11 -9 -22
q-17 -35 -41 -64l-2 -2q-10 -10 -23 -10q-12 0 -21 8q-12 10 -12 25v340q0 18 -12.5 30.5t-30.5 12.5h-170q-104 0 -170 -85q-42 -56 -42 -128q0 -71 43 -127q65 -85 169 -85h57q24 0 37 22v0q5 9 5 20q0 18 -12 30.5t-30 12.5h-57q-52 0 -89.5 37.5t-37.5 89.5
q0 53 37.5 90.5t89.5 37.5h85q18 0 30.5 -12.5t12.5 -30.5v-268q0 -15 4 -29q6 -24 21 -43q7 -8 15 -15q19 -16 45 -22q13 -4 27 -4h2q47 2 78 33q4 4 7 8q19 20 34 43q64 94 64 212z" />
    <glyph glyph-name="A" unicode="A" 
d="M651 42v0q0 9 -3 17l-2 4l-11 22l-3 7l-38 75l-2 3l-2 4l-23 47l-1 1l-3 7l-2 4l-11 22l-3 7l-38 75l-2 3l-2 4l-23 47v0l-1 1l-3 7l-2 4l-11 22l-3 7l-38 75l-2 3l-2 4l-23 47l-1 1l-3 7l-2 4v0l-11 22l-21 42l-9 17l-1 4q-14 22 -38 22t-37 -22l-2 -4l-8 -17v0l-22 -42
l-11 -22l-1 -4l-4 -7l-1 -1l-23 -47l-2 -4l-1 -3l-38 -75l-4 -7l-11 -22l-1 -4l-4 -7l-1 -1v0l-23 -47l-2 -4l-1 -3l-38 -75l-4 -7l-11 -22l-1 -4l-4 -7l-1 -1l-23 -47l-2 -4l-1 -3l-38 -75l-4 -7l-11 -22q-5 -10 -5 -21q0 -17 12.5 -29.5t30.5 -12.5q24 0 37 22l2 4l3 6
l1 2l23 47l2 4l2 3l38 75l3 7h271q18 0 30.5 12.5t12.5 29.5q0 18 -12.5 30.5t-30.5 12.5h-229l2 3l38 75l3 7l11 21v0l2 5v0l3 6l1 2v0l23 47l2 4l2 3l38 75l3 7l11 22l2 4l3 6l4 -6l1 -4l11 -22l4 -7l38 -75l1 -3l2 -4l23 -47l1 -2l4 -6l1 -4l11 -22l4 -7l38 -75l1 -3
l26 -53l3 -6l2 -4h1l10 -22l4 -7l38 -75l1 -3l2 -4l23 -47l1 -2l4 -6l1 -4q13 -22 38 -22q17 0 29.5 12.5t12.5 29.5z" />
    <glyph glyph-name="B" unicode="B" horiz-adv-x="642" 
d="M625 255v0q4 -21 4 -43q0 -21 -4 -42q-2 -9 -4 -17v0q-11 -38 -34 -68q-18 -24 -43 -43q-30 -23 -68 -33v0q-8 -3 -17 -5q-20 -4 -42 -4h-312q-17 0 -29.5 12.5t-12.5 29.5v595q0 18 12.5 30.5t29.5 12.5h269q15 0 29 -3v0q26 -4 49 -16q4 -2 7 -4l4 -2q35 -22 56 -56
q2 -2 2 -4q3 -4 4 -7q12 -23 17 -50v0q2 -14 2 -28q0 -15 -2 -29v0q-5 -26 -17 -49q-1 -4 -4 -7q0 -1 -1 -3l-1 -1q-5 -9 -11 -17q19 -9 36 -22q25 -18 43 -42q23 -31 34 -68q2 -8 4 -17zM537 170v0q7 20 7 42q0 23 -7 43q-2 6 -5 12q-20 41 -60 60q-6 3 -13 6q-20 7 -42 7
h-198q-18 0 -30.5 12.5t-12.5 29.5q0 18 12.5 30.5t30.5 12.5h155q13 0 25 4q42 14 57 56v0q3 12 3 25t-3 25q-15 42 -57 56q-12 4 -25 4h-226v-510h269q22 0 42 7q7 2 13 5q40 20 60 61q3 6 5 12z" />
    <glyph glyph-name="C" unicode="C" horiz-adv-x="586" 
d="M587 42v0q0 18 -12.5 30.5t-30.5 12.5h-212q-15 0 -30 2h-1q-20 2 -39 8q-8 2 -15 4q-4 2 -8 3v0q-41 16 -73 44l-4 4q-11 9 -20 20l-4 4q-28 33 -44 73q-1 4 -3 8q-2 7 -4 15q-6 19 -8 40v0q-2 15 -2 30t2 30v0q2 20 7 39v0h0.5h0.5l4 16q2 4 3 8q16 40 44 73l4 4
q9 10 20 20l4 4q33 27 73 43q4 2 8 3q7 3 15 5q19 6 40 8q15 2 30 2h212q18 0 30.5 12.5t12.5 29.5q0 18 -12.5 30.5t-30.5 12.5h-212q-16 0 -32 -2q-17 -1 -33 -4v0q-10 -2 -20 -5q-6 -1 -11 -3q-39 -12 -74 -32v0v0v0v0q-29 -16 -54 -38l-1 -1l-3 -3h-1q-12 -11 -23 -24v0
q-2 -1 -3 -3l-2 -2q-21 -24 -38 -53v0v0v0v0q-20 -35 -31 -74q-2 -5 -3 -11q-3 -10 -5 -21v0q-3 -16 -5 -32q-1 -16 -1 -32t1 -32q2 -16 5 -33v0q2 -10 5 -20q1 -6 3 -11q11 -39 31 -74v0v0v0v0v0v0q17 -29 38 -53l2 -2t1 -2l2 -2v0v0v0q11 -12 24 -23v0q1 -2 3 -3l2 -2
q24 -21 53 -37v0v0v-1v0q35 -20 74 -31q5 -2 11 -3q10 -3 20 -5v0q16 -3 33 -5q16 -1 32 -1h212q18 0 30.5 12.5t12.5 29.5z" />
    <glyph glyph-name="D" unicode="D" horiz-adv-x="669" 
d="M656 372v0q1 -16 1 -32t-1 -32q-2 -16 -5 -33v0l-4 -20q-2 -6 -3 -11q-12 -39 -32 -74v0v0v0v0v0v0q-17 -29 -38 -53l-2 -2q0 -1 -1 -2l-2 -2v0v0v0q-11 -12 -23 -23h-1q-1 -2 -3 -3q0 -1 -1 -2q-25 -21 -53 -37v0v0l-1 -1v0q-34 -20 -73 -31q-6 -2 -12 -3q-10 -3 -20 -5
v0q-16 -3 -33 -5q-15 -1 -31 -1h-212v0h-1q-18 0 -30 12.5t-12 29.5v595q0 18 12 30.5t30 12.5h1v0h212q16 0 31 -2q17 -1 33 -4v0q10 -2 20 -5q6 -1 12 -3q39 -12 73 -32v0h1v0v0q28 -16 53 -38q1 0 1 -1q2 -2 4 -3v0q12 -11 23 -24v0q2 -1 3 -3l2 -2q21 -24 38 -53v0v0v0
v0q20 -35 32 -74q1 -5 3 -11q2 -10 4 -21v0q3 -16 5 -32zM571 310v0q1 15 1 30t-1 30v0q-3 20 -8 39v0v0v0q-2 8 -5 16q-1 4 -3 8q-16 40 -44 73q-1 2 -3 4l-20 20q-3 2 -5 4q-32 27 -72 43q-4 2 -9 3q-7 3 -15 5q-19 6 -39 8q-15 2 -30 2h-170v-510h170q15 0 30 2v0
q20 2 39 8q8 2 15 4q5 2 9 3v0q40 16 72 44q2 2 5 4q10 9 20 20q2 2 3 4q28 33 44 73q2 4 3 8q3 7 5 15q5 19 8 40v0z" />
    <glyph glyph-name="E" unicode="E" horiz-adv-x="655" 
d="M218 382v0h312q18 0 30.5 -12.5t12.5 -29.5q0 -18 -12.5 -30.5t-30.5 -12.5h-312q-17 0 -29.5 12.5t-12.5 30.5q0 17 12.5 29.5t29.5 12.5zM658 42v0q0 17 -11 29t-28 14h-471v40v2v425v3v40h467q18 0 30.5 12.5t12.5 29.5t-12 29t-29 14h-2h-510h-2q-17 -2 -28.5 -14
t-11.5 -29v-595q0 -17 12.5 -29.5t29.5 -12.5h510q18 0 30.5 12.5t12.5 29.5z" />
    <glyph glyph-name="F" unicode="F" horiz-adv-x="604" 
d="M629 637v0q0 18 -12.5 30.5t-30.5 12.5h-481q-17 0 -29.5 -12.5t-12.5 -30.5v-595q0 -17 12.5 -29.5t29.5 -12.5q18 0 30.5 12.5t12.5 29.5v298h353q18 0 30.5 12.5t12.5 29.5q0 18 -12.5 30.5t-30.5 12.5h-311h-2h-40v170h440q18 1 29.5 13t11.5 29z" />
    <glyph glyph-name="G" unicode="G" horiz-adv-x="672" 
d="M647 340v0q0 20 -16 33q-12 9 -27 9h-226q-18 0 -30 -12t-12 -30t12 -30.5t30 -12.5h184v-75q-15 -28 -36 -52q-10 -11 -20 -20q-3 -2 -5 -4q-32 -28 -72 -43q-4 -2 -8 -3q-8 -3 -16 -5q-19 -6 -39 -8v0q-15 -2 -30 -2q-16 0 -31 2v0q-20 2 -39 8q-8 2 -15 5q-5 1 -8 3
q-41 15 -73 43l-4 4q-11 9 -20 20l-4 4q-28 33 -44 73q-1 4 -3 8q-3 8 -5 15q-4 14 -6 27q-1 6 -2 13v0q-1 15 -1 30t1 30v0l2 12q2 14 6 27q2 8 5 16q2 4 3 8q16 40 44 73l4 4q9 10 20 20l4 4q32 27 73 43q3 2 8 3q7 3 15 5q19 6 39 8v0q9 1 17 2h14h13l18 -2v0
q18 -1 35 -5q9 -2 19 -5q5 -2 10 -3q39 -13 74 -36v0h1q22 -15 42 -34q7 -7 14 -15q4 -5 9 -10l2 -2q12 -14 31 -14q24 0 37 21q5 9 6 20v1q0 16 -10 27q-26 32 -58 57l-8 6q-2 2 -5 4q-2 1 -4 3q-27 19 -56 33v0v0h-0.5h-0.5q-34 17 -72 27q-6 1 -12 3q-12 2 -23 4l-30 4
h-0.5t-0.5 -1q-3 1 -5 1h-6q-6 1 -12 1v0h-8h-9q-6 0 -12 -1q-6 0 -11 -1q-17 -1 -33 -4v0q-10 -2 -20 -5q-6 -1 -12 -3q-39 -11 -73 -32h-1q-28 -16 -53 -38v0q-1 0 -1 -1l-2 -2t-2 -1v0v0v0q-12 -11 -23 -23v-0.5v-0.5v0q-1 0 -2 -1t-1 -2l-2 -2q-21 -24 -38 -53v0
q-20 -35 -32 -74q-1 -5 -3 -11q-2 -10 -4 -21v0q-2 -10 -4 -22q0 -5 -1 -10q-1 -16 -1 -32t1 -32q1 -5 1 -11l4 -22v0l4 -20q2 -6 3 -11q12 -39 32 -74v0v0v0v0v0v0q17 -29 38 -53l2 -2q1 -2 3 -4l2 -2q10 -11 21 -21v0v0v0q1 -1 2 -1l2 -2q0 -1 1 -1v0q25 -22 53 -38l1 -1
v0q34 -20 73 -31q6 -2 12 -3q10 -3 20 -5v0q16 -3 33 -5q16 -1 32 -1t31 1q17 2 33 5v0q10 2 21 5q5 1 11 3q39 11 73 31v0h0.5h0.5v0.5v0.5v0q28 16 53 38q1 0 2 1q0 1 1 1q12 11 23 23l7 7v1q21 24 38 53v0v0v0q9 16 17 33v137z" />
    <glyph glyph-name="H" unicode="H" horiz-adv-x="665" 
d="M630 637v0q0 18 -12.5 30.5t-30.5 12.5q-17 0 -29.5 -12.5t-12.5 -30.5v-255v-2v-40h-397v297q0 18 -12.5 30.5t-29.5 12.5q-18 0 -30.5 -12.5t-12.5 -30.5v-595q0 -17 12.5 -29.5t30.5 -12.5q17 0 29.5 12.5t12.5 29.5v213h397v-40v-3v-170q0 -17 12.5 -29.5t29.5 -12.5
q18 0 30.5 12.5t12.5 29.5v595z" />
    <glyph glyph-name="I" unicode="I" horiz-adv-x="178" 
d="M105 680v0q18 0 30.5 -12.5t12.5 -30.5v-595q0 -17 -12.5 -29.5t-30.5 -12.5q-17 0 -29.5 12.5t-12.5 29.5v595q0 18 12.5 30.5t29.5 12.5z" />
    <glyph glyph-name="J" unicode="J" horiz-adv-x="558" 
d="M531 637v0q0 18 -12.5 30.5t-29.5 12.5h-255q-18 0 -30.5 -12.5t-12.5 -30.5q0 -17 12.5 -29.5t30.5 -12.5h212v-340q0 -15 -2 -28v-1q-4 -26 -16 -49q-2 -4 -4 -7q-1 -2 -3 -4q-21 -35 -56 -56l-4 -2q-3 -2 -7 -4q-23 -12 -49 -17v0q-14 -2 -29 -2q-14 0 -28 2v0
q-26 5 -49 17l-8 4q-1 0 -2 1l-1 1q-35 21 -57 56l-2 4q-2 3 -4 7q-10 20 -15 44q-1 2 -1 4q-1 3 -3 6q-12 24 -38 24q-17 0 -29.5 -12.5t-12.5 -30.5q0 -4 1 -8v-1q3 -17 9 -33q17 -48 50 -85q10 -11 20 -20q3 -2 5 -4q32 -28 72 -43q4 -2 8 -3q8 -3 16 -5v0q19 -6 39 -8v0
q15 -2 30 -2q16 0 31 2v0q20 2 39 8v0q8 2 15 4l8 4q41 15 73 43l4 4q11 9 21 20q2 2 3 4q28 33 44 73q2 4 3 8q3 8 5 15q5 19 8 40v0q1 15 1 30v382z" />
    <glyph glyph-name="K" unicode="K" horiz-adv-x="598" 
d="M105 680v0q18 0 30.5 -12.5t12.5 -30.5v-595q0 -17 -12.5 -29.5t-30.5 -12.5q-17 0 -29.5 12.5t-12.5 29.5v595q0 18 12.5 30.5t29.5 12.5zM586 75v0l3 -3q12 -12 12 -30q0 -17 -12.5 -29.5t-30.5 -12.5q-14 0 -25 8l-6 5l-11 10l-3 3l-61 53l-7 6l-14 12l-7 7l-63 55
l-13 11l-2 2l-12 10l-64 56l-9 8l-10 9l-32 28l-27 24q-16 13 -16 33q0 18 13 30l3 3l27 23l32 29l10 8l9 8l64 56l12 11l3 2l12 10l63 56l7 6l15 13l6 6l61 53l3 3l16 13q11 10 27 10q17 0 29.5 -12.5t12.5 -30.5q0 -17 -12 -30l-4 -3v0v0l-1 -1l-9 -8l-3 -2l-55 -49h-1
l-1 -1l-37 -33v0h-1l-46 -41v0l-50 -43l-1 -1l-1 -1v0l-30 -27l-3 -2l-1 -1l-58 -51v0l-4 -3v0l4 -3v0l58 -51l1 -1l3 -3l30 -26l1 -1l1 -1l50 -44v0v0l46 -40v0l38 -33l1 -1l1 -1l55 -48l2 -2l10 -9h1z" />
    <glyph glyph-name="L" unicode="L" horiz-adv-x="539" 
d="M573 42v0q0 18 -12.5 30.5t-30.5 12.5h-340h-4h-38v552q0 18 -12.5 30.5t-30.5 12.5q-17 0 -29.5 -12.5t-12.5 -30.5v-595q0 -17 11.5 -29t28.5 -13h2h425h3q17 1 28.5 13t11.5 29z" />
    <glyph glyph-name="M" unicode="M" horiz-adv-x="853" 
d="M828 637v0q0 18 -12.5 30.5t-30.5 12.5q-21 0 -34 -17v-1l-2 -3v0l-6 -9l-1 -2l-36 -53v-1l-42 -63l-6 -8l-15 -23l-47 -70l-15 -23v0l-1 -2v0h-1v-1l-6 -9l-1 -2l-36 -53v0v0v0l-42 -64l-6 -8l-9 -13l-6 -10l-28 -41l-27 41l-6 10l-9 13l-6 8l-42 64v0v0l-36 53l-1 2
l-6 9v1h-1l-1 2v0v0v0l-12 18l-3 5l-47 70l-6 10l-9 13l-6 8l-42 63v1v0v0l-36 53l-1 2l-6 10l-2 2q-13 18 -34 18q-18 0 -30.5 -12.5t-12.5 -30.5v-595q0 -17 12.5 -29.5t30.5 -12.5q17 0 29.5 12.5t12.5 29.5v455l6 -8v-1l42 -63v0v-1l36 -52l1 -3l7 -10l13 -19l3 -5
l47 -70l6 -10l9 -13l6 -8l42 -64v0v0l28 -43l8 -10l1 -3l7 -10q14 -19 35 -19q22 0 35 18l1 1l7 11l1 2l8 10l28 42v1v0v0l42 64l6 8l15 23l47 70l16 23v1v0l7 10l1 3l36 52v0v1l42 63v1l6 8v-455q0 -17 12.5 -29.5t29.5 -12.5q18 0 30.5 12.5t12.5 29.5v595z" />
    <glyph glyph-name="N" unicode="N" horiz-adv-x="676" 
d="M657 637v0q0 18 -12 30.5t-30 12.5t-30 -12.5t-12 -30.5v-480l-11 13l-7 8l-55 64l-11 13l-2 1l-10 13l-55 64l-6 7l-13 16l-6 6l-52 60l-2 3l-5 6l-17 20v0v0l-3 4l-2 1l-46 54v0v0l-37 44v0h-1l-34 40l-1 1v0l-47 56l-2 2l-10 11v0v1h-1q-13 15 -32 15q-18 0 -30 -12.5
t-12 -30.5v-595q0 -17 12 -29.5t30 -12.5t30.5 12.5t12.5 29.5v480l10 -12l7 -8l55 -64l11 -13h2v-2l10 -12l55 -64l6 -7l14 -16l5 -6l52 -60l2 -3l6 -7v0l16 -19v0l4 -4l1 -2l46 -53v0l37 -44v1l1 -1l34 -40l1 -1v-1l47 -55l3 -2l9 -12q13 -15 33 -15q18 0 30 12.5t12 29.5
v595z" />
    <glyph glyph-name="O" unicode="O" horiz-adv-x="711" 
d="M360 680v0q140 0 240 -99.5t100 -240.5t-100 -240.5t-240 -99.5q-141 0 -240.5 99.5t-99.5 240.5t99.5 240.5t240.5 99.5zM360 85v0q105 0 180 74.5t75 180.5q0 105 -75 180t-180 75q-106 0 -180.5 -75t-74.5 -180q0 -106 74.5 -180.5t180.5 -74.5z" />
    <glyph glyph-name="P" unicode="P" horiz-adv-x="653" 
d="M649 446v0q0 8 -1 15v0l-2 22v0v0q-2 14 -6 27l-4 12q-14 40 -40 72v0l-1 1q-1 1 -1 2v0q-13 15 -29 28v0l-1 1v0l-1 1h-1q-31 27 -71 40l-12 4q-14 4 -28 6v0v0q-10 2 -21 2v0q-8 1 -15 1h-309q-18 0 -30.5 -12.5t-12.5 -30.5v-595q0 -17 12.5 -29.5t30.5 -12.5
q17 0 29.5 12.5t12.5 29.5v510q0 18 12.5 30.5t30.5 12.5h224q7 0 14 -1q15 -1 30 -6v0v0v0q10 -3 20 -7q3 -2 7 -4q38 -21 59 -59q2 -3 3 -6q1 -1 1 -2q5 -10 8 -20v0v0v0q4 -14 6 -30q1 -7 1 -14q0 -11 -2 -21q-1 -11 -4 -21v0q-12 -37 -39 -64v0v0v0q-18 -17 -40 -28
q-30 -15 -64 -15h-196q-25 0 -38 -23q-5 -9 -5 -19q0 -18 12.5 -30.5t30.5 -12.5h175v1q10 -1 21 -1q33 0 64 9l1 1q33 9 61 28q12 7 23 16q4 3 7 7q13 11 24 24q15 19 26 40q1 1 2 3t2 5q13 26 19 56q2 12 3 24q2 10 2 21z" />
    <glyph glyph-name="Q" unicode="Q" horiz-adv-x="676" 
d="M658 73v0l2 -2q11 -12 11 -29t-12 -29.5t-30 -12.5t-30 12l-59 59q-91 -71 -208 -71q-141 0 -240.5 99.5t-99.5 240.5q0 118 71 208q26 34 60 60q91 72 209 72q140 0 239.5 -99.5t99.5 -240.5q0 -68 -24 -128v0h-1q-1 -4 -2 -7v0h-1q-17 -40 -43 -74zM565 237v0q2 4 3 9
q18 44 18 94q0 105 -74.5 180t-179.5 75q-83 0 -148 -47q-35 -25 -60 -61q-47 -65 -47 -147q0 -106 74.5 -180.5t180.5 -74.5q82 0 147 47l-37 37q-13 13 -13 30q0 18 12.5 30.5t30.5 12.5q17 0 29 -12l38 -38q15 21 26 45z" />
    <glyph glyph-name="R" unicode="R" horiz-adv-x="678" 
d="M648 69v0v1l-12 15l-3 4l-51 64l-9 11l-5 6l-9 11l-25 31l-16 20q17 8 33 18v0q11 7 22 16q4 3 8 7q13 11 23 24q16 19 27 40q1 1 1 3q2 2 3 5q13 26 19 56q2 12 3 24q1 11 1 21q0 8 -1 15v0q0 11 -2 21v0v1q-2 14 -6 27l-4 12v0q-13 40 -40 72l-1 1q0 1 -1 2
q-13 15 -28 28q-1 1 -2 1l-1 1q-32 26 -72 40v0l-12 4q-13 4 -27 6h-1q-10 2 -21 2v0q-7 1 -15 1h-319q-17 0 -29.5 -12.5t-12.5 -30.5v-595q0 -17 12.5 -29.5t29.5 -12.5q18 0 30.5 12.5t12.5 29.5v510v6q3 16 14.5 26.5t28.5 10.5h233q7 0 14 -1q16 -1 30 -6v0
q11 -3 20 -7l8 -4q38 -21 59 -60q2 -3 4 -7q4 -10 7 -20v0q5 -14 6 -30q1 -7 1 -14q0 -11 -2 -21q-1 -11 -4 -21q-11 -37 -39 -64v0v0v0q-17 -17 -40 -28q-12 -6 -26 -10q-18 -5 -38 -5h-64h-3v0h-138q-18 0 -30.5 -12t-12.5 -30t12.5 -30.5t30.5 -12.5h206l34 -42l3 -3
l25 -32l1 -1v-1l39 -48v0v0l44 -55l2 -3l10 -12q13 -15 32 -15q18 0 30.5 12.5t12.5 29.5q0 16 -10 27z" />
    <glyph glyph-name="S" unicode="S" horiz-adv-x="644" 
d="M622 198v0q0 3 -1 7v1v0v0v0q-1 12 -3 24v0v0v0v0v0v0v0v0v0v1v0q-3 12 -7 24q-8 23 -21 42q-42 62 -117 81q-20 4 -42 4h-207h-6h-5q-51 4 -80 43q-4 5 -7 11v0v0v0v0v0v0v0q-10 18 -13 39v0q-1 7 -1 14q0 11 2 21q2 9 6 18q17 42 59 59q16 7 34 8h5h6h355
q18 0 30.5 12.5t12.5 29.5q0 18 -12.5 30.5t-30.5 12.5h-361q-22 0 -43 -5v0q-34 -8 -61 -26q-1 -1 -2 -1q0 -1 -1 -1q-30 -21 -51 -51v-1h-1v-1q-1 0 -1 -1q-18 -27 -26 -61v0l-4 -22q-1 -11 -1 -21q0 -8 1 -15v0q1 -13 3 -25v0q3 -12 7 -24q8 -23 21 -43q60 -85 159 -85
h213q52 0 85 -42q4 -5 7 -11v0v0v0q11 -18 13 -40q1 -6 1 -13q0 -11 -2 -21t-6 -18q-17 -42 -59 -60q-16 -6 -34 -7h-5h-6h-355q-18 0 -30.5 -12.5t-12.5 -30.5q0 -17 12.5 -29.5t30.5 -12.5h364q21 0 40 5h1q33 8 60 26v0v0v0v0q2 1 3 2v0v0v0v0q30 21 51 51l1 1v0q0 1 1 1
v1q18 27 26 60v0v0v0v1q3 11 4 22q1 7 1 15v6v7z" />
    <glyph glyph-name="T" unicode="T" horiz-adv-x="518" 
d="M594 637v0q0 18 -12 30.5t-30 12.5h-510q-18 0 -30.5 -12.5t-12.5 -30.5q0 -17 12 -29t29 -13h214v-553q0 -17 12.5 -29.5t30.5 -12.5q17 0 29 11.5t13 28.5v555h215q17 1 28.5 13t11.5 29z" />
    <glyph glyph-name="U" unicode="U" horiz-adv-x="663" 
d="M647 637v0q0 18 -12.5 30.5t-30.5 12.5q-17 0 -29.5 -12.5t-12.5 -30.5v-340q0 -21 -4 -42q-2 -9 -5 -17q-11 -38 -34 -68q-18 -24 -42 -43q-31 -23 -68 -34q-9 -2 -17 -4q-21 -4 -43 -4q-21 0 -42 4q-9 2 -17 4q-38 12 -68 35q-24 18 -43 42q-23 30 -34 68q-2 8 -4 17
q-4 21 -4 42v340q0 18 -12.5 30.5t-30.5 12.5q-17 0 -29.5 -12.5t-12.5 -30.5v-340q0 -21 3 -42q1 -10 3 -20q8 -33 21 -62q1 -2 2 -3q0 -1 1 -2q18 -37 45 -68q5 -6 10 -11l2 -2l2 -2q5 -5 11 -10q31 -27 68 -45q0 -1 1 -1h1l1 -1q1 0 2 -1v0q29 -13 62 -20q10 -3 20 -4
q21 -3 42 -3q22 0 43 3q10 1 20 4q32 7 62 20v0q1 1 2 1t1 1h1h1q37 19 68 46q5 5 11 10l2 2l2 2q5 5 10 11q27 31 45 68q1 1 1 2q1 1 2 3q13 29 20 62l4 20q3 21 3 42v340z" />
    <glyph glyph-name="V" unicode="V" horiz-adv-x="576" 
d="M603 637v0q0 18 -12.5 30.5t-30.5 12.5q-25 0 -38 -25l-1 -2l-215 -503l-216 503l-1 1q-12 26 -38 26q-18 0 -30.5 -12.5t-12.5 -30.5q0 -8 3 -14l1 -4l247 -577l7 -16l1 -1q12 -25 39 -25q26 0 39 26l7 16l247 578l1 1q3 8 3 16z" />
    <glyph glyph-name="W" unicode="W" horiz-adv-x="929" 
d="M948 637v0q0 18 -12.5 30.5t-29.5 12.5q-26 0 -39 -25l-3 -8l-174 -487l-163 393l-6 15l-1 3q-13 24 -39 24q-25 0 -38 -24l-2 -4l-1 -2l-5 -12l-163 -393l-175 490l-2 4q-13 26 -39 26q-18 0 -30.5 -12.5t-12.5 -30.5q0 -6 2 -12l2 -5l206 -576l4 -13l3 -6
q12 -25 38 -25t39 25l1 3l6 13l167 401l167 -401l6 -15q13 -26 39 -26q27 0 40 26l1 4l5 14l206 576l2 5q1 6 1 12z" />
    <glyph glyph-name="X" unicode="X" horiz-adv-x="621" 
d="M612 68v0l-1 1l-1 1l-231 270l229 267v1l4 4q8 11 8 25q0 18 -12 30.5t-30 12.5q-20 0 -33 -16l-222 -259l-221 258l-3 4h-1q-13 13 -30 13q-18 0 -30.5 -12.5t-12.5 -30.5q0 -15 10 -27l232 -270l-232 -271q-10 -11 -10 -27q0 -17 12.5 -29.5t30.5 -12.5q17 0 30 12l1 1
l1 1l2 3v0l221 258l222 -260q13 -15 33 -15q18 0 30 12.5t12 29.5q0 15 -8 26z" />
    <glyph glyph-name="Y" unicode="Y" horiz-adv-x="536" 
d="M597 637v0q0 18 -12.5 30.5t-29.5 12.5q-20 0 -33 -15v0l-3 -4l-177 -236l-42 -57l-43 57l-177 236l-2 3q-14 16 -33 16q-18 0 -30.5 -12.5t-12.5 -30.5q0 -13 7 -23l3 -4l235 -313l10 -14v-241q0 -17 12.5 -29.5t30.5 -12.5q17 0 29.5 12.5t12.5 29.5v241l11 14l234 313
l3 4q7 10 7 23z" />
    <glyph glyph-name="Z" unicode="Z" horiz-adv-x="619" 
d="M620 42v0q0 18 -12.5 30.5t-29.5 12.5h-418l437 510l11 12l4 5v0q8 11 8 25q0 18 -12.5 30.5t-29.5 12.5h-510q-18 0 -30.5 -12.5t-12.5 -30.5q0 -17 12.5 -29.5t30.5 -12.5h417l-437 -510l-13 -16q-10 -11 -10 -27q0 -17 12.5 -29.5t30.5 -12.5h510q17 0 29.5 12.5
t12.5 29.5z" />
    <glyph glyph-name="bracketleft" unicode="[" horiz-adv-x="335" 
d="M40 722v0q0 18 12.5 30.5t30.5 12.5h169q18 0 30.5 -12.5t12.5 -30.5q0 -17 -12.5 -29.5t-30.5 -12.5h-127v-680h127q18 0 30.5 -12.5t12.5 -30.5q0 -17 -12.5 -29.5t-30.5 -12.5h-169q-18 0 -30.5 12.5t-12.5 29.5v765z" />
    <glyph glyph-name="backslash" unicode="\" horiz-adv-x="389" 
d="M39 621v0l-2 4q-7 26 14 45q14 11 31 9.5t29 -14.5q4 -5 6 -11l2 -4l241 -662q7 -26 -14 -45q-14 -11 -31 -9.5t-29 14.5q-5 7 -8 15z" />
    <glyph glyph-name="bracketright" unicode="]" horiz-adv-x="335" 
d="M295 722v0q0 18 -12.5 30.5t-29.5 12.5h-170q-18 0 -30.5 -12.5t-12.5 -30.5q0 -17 12.5 -29.5t30.5 -12.5h127v-680h-127q-18 0 -30.5 -12.5t-12.5 -30.5q0 -17 12.5 -29.5t30.5 -12.5h170q17 0 29.5 12.5t12.5 29.5v765z" />
    <glyph glyph-name="asciicircum" unicode="^" horiz-adv-x="375" 
d="M337 425v0q0 11 -5 20l-96 192l-9 17l-1 4q-14 22 -38 22t-37 -22l-10 -21l-96 -192l-2 -3q-3 -8 -3 -17q0 -18 12.5 -30t29.5 -12q24 0 37 21l69 138l67 -134l2 -3q13 -23 38 -23q17 0 29.5 12.5t12.5 30.5z" />
    <glyph glyph-name="underscore" unicode="_" horiz-adv-x="505" 
d="M465 43v0q0 17 -12.5 29.5t-30.5 12.5h-339q-18 0 -30.5 -12.5t-12.5 -29.5q0 -18 12.5 -30.5t30.5 -12.5h339q18 0 30.5 12.5t12.5 30.5z" />
    <glyph glyph-name="grave" unicode="`" horiz-adv-x="230" 
d="M200 552v0q0 18 -13 31l-84 84l-1 1q-12 12 -30 12q-17 0 -29.5 -12.5t-12.5 -30.5q0 -17 12 -29l1 -1l84 -84l1 -1q12 -12 29 -12q18 0 30.5 12.5t12.5 29.5z" />
    <glyph glyph-name="a" unicode="a" horiz-adv-x="464" 
d="M441 382v0q0 18 -12.5 30.5t-29.5 12.5h-170q-22 0 -43 -5q-8 -1 -17 -4q-37 -11 -68 -34q-24 -18 -42 -42q-23 -31 -34 -68q-3 -9 -4 -17q-5 -21 -5 -43t5 -42q1 -9 4 -17q11 -38 34 -68q18 -25 42 -43v0q31 -23 68 -34q9 -2 17 -4q21 -4 43 -4h57q23 0 37 22v0
q5 9 5 20q0 18 -12.5 30.5t-29.5 12.5h-57q-22 0 -43 7q-6 2 -12 5q-40 20 -60 60q-3 6 -5 13q-7 18 -7 38v0q-1 2 -1 4t1 5v0q0 20 7 38q2 6 5 12q20 40 60 60q6 3 12 5q21 8 43 8h85q18 0 30 -12.5t12 -30.5v-255q0 -17 12.5 -29.5t30.5 -12.5q17 0 29.5 12.5t12.5 29.5
v340z" />
    <glyph glyph-name="b" unicode="b" horiz-adv-x="491" 
d="M474 212v0v5v0v0q0 19 -4 38q-2 8 -4 17q-11 37 -34 68q-18 24 -43 42q-30 23 -68 34q-8 3 -17 4q-20 5 -42 5h-57q-24 0 -37 -22v0q-5 -10 -5 -21q0 -17 12.5 -29.5t29.5 -12.5h57q22 0 42 -7q7 -3 13 -6q40 -20 60 -60q3 -6 5 -12q7 -20 7 -43q0 -22 -7 -42
q-2 -7 -5 -13v0q-20 -40 -60 -60q-6 -3 -13 -5q-20 -7 -42 -7h-85q-18 0 -30.5 12.5t-12.5 29.5v510q0 18 -12.5 30.5t-29.5 12.5q-18 0 -30.5 -12.5t-12.5 -30.5v-595q0 -17 12.5 -29.5t30.5 -12.5h170q22 0 42 4q9 2 17 4q38 11 68 34q25 19 43 43q23 30 34 68q2 8 4 17
q4 18 4 38v0v0v4z" />
    <glyph glyph-name="c" unicode="c" horiz-adv-x="439" 
d="M441 42v0q0 18 -12.5 30.5t-29.5 12.5h-170q-23 0 -43 7q-6 2 -12 5q-41 20 -60 60q-3 6 -6 13q-6 18 -7 38v0v4v5v0q1 20 7 38l6 12q19 40 60 60q6 3 12 5q20 8 43 8h170q17 0 29.5 12.5t12.5 29.5q0 18 -12.5 30.5t-29.5 12.5h-170q-22 0 -43 -5q-8 -1 -17 -4
q-37 -11 -68 -34q-24 -18 -42 -42q-23 -31 -34 -68q-3 -9 -5 -17q-4 -21 -4 -43t4 -42q2 -9 5 -17v0q11 -38 34 -68q18 -25 42 -43q31 -23 68 -34v0q9 -2 17 -4q21 -4 43 -4h170q17 0 29.5 12.5t12.5 29.5z" />
    <glyph glyph-name="d" unicode="d" horiz-adv-x="462" 
d="M324 42v0q0 18 -12.5 30.5t-29.5 12.5h-57q-23 0 -43 7q-6 2 -12 5q-40 20 -60 60q-3 6 -5 13q-8 20 -8 42q0 23 8 43q2 6 5 12v0q20 40 60 60q6 3 12 5q20 8 43 8h57q17 0 29.5 12.5t12.5 29.5q0 11 -5 21v0q-14 22 -37 22h-57q-22 0 -43 -5q-8 -1 -17 -4
q-37 -11 -68 -34q-24 -18 -42 -42q-23 -31 -34 -68q-3 -9 -4 -17q-4 -19 -4 -38v0v0q-1 -3 -1 -5t1 -4v0v0q0 -20 4 -38q1 -9 4 -17q11 -38 34 -68q18 -25 42 -43q31 -23 68 -34q9 -2 17 -4q21 -4 43 -4h57q23 0 37 22v0q5 9 5 20zM437 637v0q0 18 -12.5 30.5t-29.5 12.5
q-18 0 -30.5 -12.5t-12.5 -30.5v-595q0 -17 12.5 -29.5t30.5 -12.5q17 0 29.5 12.5t12.5 29.5v595z" />
    <glyph glyph-name="e" unicode="e" horiz-adv-x="451" 
d="M441 212v0q0 22 -5 43q-1 8 -4 17q-11 37 -34 68q-18 24 -42 42q-31 23 -68 34q-9 3 -17 4q-21 5 -43 5t-42 -5q-9 -1 -17 -4q-38 -11 -68 -34q-25 -18 -43 -42q-23 -31 -34 -68q-2 -9 -4 -17q-4 -21 -4 -43t4 -42q2 -9 4 -17q11 -38 34 -68q18 -25 43 -43q30 -23 68 -34
q8 -2 17 -4q20 -4 42 -4l158 1q17 0 29.5 12.5t12.5 30.5v0q0 17 -12.5 29.5t-29.5 12.5l-158 -1q-22 0 -42 7q-7 2 -13 5q-40 20 -60 60q-3 6 -5 13q-7 20 -7 42q0 23 7 43q2 6 5 12q20 40 60 60q6 3 13 5q20 8 42 8q23 0 43 -8q6 -2 12 -5q40 -20 60 -60q3 -6 5 -12h-176
q-18 0 -30.5 -12.5t-12.5 -30.5q0 -17 12.5 -29.5t30.5 -12.5h226q18 0 30.5 12.5t12.5 29.5z" />
    <glyph glyph-name="f" unicode="f" horiz-adv-x="365" 
d="M384 637v0q0 23 -21 37q-4 2 -8 3q-6 3 -14 3h-28q-22 0 -43 -5q-8 -1 -17 -4q-37 -11 -68 -34q-24 -18 -42 -42q-23 -31 -34 -68q-3 -9 -4 -17q-5 -21 -5 -43v-42h-42q-18 0 -30.5 -12.5t-12.5 -30.5q0 -17 12.5 -29.5t30.5 -12.5h42v-298q0 -17 12.5 -29.5t30.5 -12.5
q17 0 29.5 12.5t12.5 29.5v298h128q17 0 29.5 12.5t12.5 29.5q0 18 -12.5 30.5t-29.5 12.5h-128v42q0 23 8 43q2 6 5 12q20 40 60 60q6 3 12 5q20 8 43 8h28q8 0 14 2q29 12 29 40z" />
    <glyph glyph-name="g" unicode="g" horiz-adv-x="469" 
d="M440 382v0q0 18 -12 30.5t-30 12.5h-170q-22 0 -42 -5q-9 -1 -17 -4q-38 -11 -68 -34q-25 -18 -43 -42q-23 -31 -34 -68q-3 -9 -4 -17q-5 -21 -5 -43t5 -42q1 -9 4 -17q11 -38 34 -68q18 -25 43 -43q10 -8 21 -14q22 -13 47 -20q8 -2 17 -4q20 -4 42 -4h57q24 0 37 22
q4 7 5 16v4q0 18 -12.5 30.5t-29.5 12.5h-57q-22 0 -42 7q-7 2 -13 5q-31 15 -51 44q-5 8 -9 16q-3 6 -5 13q-7 20 -7 42q0 23 7 43q2 6 5 12q20 40 60 60q6 3 13 5q20 8 42 8h85q18 0 30.5 -12.5t12.5 -30.5v-340q0 -2 -1 -4v0q0 -20 -7 -38q-2 -7 -5 -13q-20 -40 -60 -60
q-6 -3 -13 -5q-20 -7 -42 -7t-42 7q-7 2 -13 5q-40 20 -60 60q-3 6 -5 13q-2 4 -3 8v0q0 2 -1 4v0q-1 5 -3 8q-14 22 -38 22q-17 0 -29.5 -12.5t-12.5 -29.5q0 -5 1 -10q0 -1 1 -3v0v0q0 -2 1 -4q11 -38 34 -68q18 -25 43 -43q30 -23 68 -34q8 -2 17 -4q20 -4 42 -4t42 4
q9 2 17 4q38 11 69 34q24 19 42 43q23 30 34 68q2 8 4 17q4 20 4 42v425z" />
    <glyph glyph-name="h" unicode="h" horiz-adv-x="496" 
d="M91 680v0q18 0 30.5 -12.5t12.5 -30.5v-595q0 -17 -12.5 -29.5t-30.5 -12.5q-17 0 -29.5 12.5t-12.5 29.5v595q0 18 12.5 30.5t29.5 12.5zM470 255v0q4 -21 4 -43v-170q0 -17 -12.5 -29.5t-30.5 -12.5q-17 0 -29.5 12.5t-12.5 29.5v170q0 23 -7 43q-3 6 -5 12
q-5 9 -10 16q-19 29 -51 44l-12 6q-20 7 -43 7q-22 0 -42 -7q-1 -1 -2 -1q-6 -2 -12 -2h-2q-14 1 -25 10v0v0v0v0v0q-16 13 -16 33q0 6 2 12q6 19 24 27q2 1 5 1q4 2 9 3q8 3 17 4q21 5 42 5q22 0 43 -5q8 -1 17 -4q25 -7 46 -20q12 -6 22 -14q24 -18 42 -42v0v0
q23 -31 34 -68q3 -9 5 -17z" />
    <glyph glyph-name="i" unicode="i" horiz-adv-x="166" 
d="M94 505v0q-20 0 -34 14t-14 33q0 20 14 34t34 14t33.5 -14t13.5 -34q0 -19 -13.5 -33t-33.5 -14zM94 425v0q18 -1 30 -13t12 -30v-340q0 -17 -12 -29.5t-30 -12.5v0q-18 0 -30.5 12.5t-12.5 29.5v340q0 18 12.5 30t30.5 13v0z" />
    <glyph glyph-name="j" unicode="j" horiz-adv-x="314" 
d="M235 504v0q-20 0 -34 14t-14 33q0 20 14 34t34 14t34 -14t14 -34q0 -19 -14 -33t-34 -14zM277 381v0q0 18 -12.5 30.5t-29.5 12.5q-18 0 -30.5 -12.5t-12.5 -30.5v-425q0 -22 -7 -42q-2 -7 -5 -13q-20 -40 -60 -60q-6 -3 -13 -5q-19 -7 -40 -7v0h-2h-2v0
q-18 -2 -29.5 -14t-11.5 -29t12.5 -29.5t30.5 -12.5q22 0 42 4q9 2 17 4q38 11 68 34q25 18 43 43q23 30 34 68q2 8 4 17q4 20 4 42v425z" />
    <glyph glyph-name="k" unicode="k" horiz-adv-x="418" 
d="M92 680v0q17 0 29.5 -12.5t12.5 -30.5v-595q0 -17 -12.5 -29.5t-29.5 -12.5q-18 0 -30.5 12.5t-12.5 29.5v595q0 18 12.5 30.5t30.5 12.5zM326 142v0l70 -70q12 -12 12 -30q0 -17 -12.5 -29.5t-30.5 -12.5q-14 0 -25 8q-2 2 -5 4l-12 13l-3 2l-54 55l-3 3l-1 1l-12 11
l-12 13l-3 2l-39 40l-15 15l-3 3l-12 12q-11 11 -13 26v4v5q2 15 13 25l12 13l3 3l15 14v1l42 42l12 12l11 11l2 2l3 2l54 55l3 3l12 12q3 2 5 4q11 9 25 9q18 0 31 -13q12 -12 12 -30q0 -17 -12 -29l-1 -1l-12 -12l-3 -3l-23 -23l-31 -32l-3 -2l-67 -68l42 -42l13 -13
l12 -12z" />
    <glyph glyph-name="l" unicode="l" horiz-adv-x="162" 
d="M91 680v0q18 0 30.5 -12.5t12.5 -30.5v-595q0 -17 -12.5 -29.5t-30.5 -12.5t-30 12.5t-12 29.5v595q0 18 12 30.5t30 12.5z" />
    <glyph glyph-name="m" unicode="m" horiz-adv-x="817" 
d="M815 212v0q0 22 -4 43q-2 8 -4 17q-11 37 -34 68q-18 24 -43 42q-30 23 -68 34q-8 3 -17 4q-20 5 -42 5t-43 -5q-8 -1 -17 -4q-37 -11 -68 -34v0v0q-24 -18 -42 -42v0q-18 24 -43 42q-30 23 -68 34q-8 3 -17 4q-20 5 -42 5v0q-22 0 -43 -5q-8 -1 -16 -4q-38 -11 -69 -34
q0 18 -12 30.5t-30 12.5t-30 -12.5t-12 -30.5v-340q0 -17 12 -29.5t30 -12.5t30 12.5t12 29.5v170q0 23 8 43q2 6 5 12q20 40 60 60q6 3 12 5q21 8 43 8v0q22 0 42 -8q7 -2 13 -5q40 -20 60 -60q3 -6 5 -12q7 -20 7 -43v-170q0 -17 12.5 -29.5t30.5 -12.5t30 12.5t12 29.5
v173v0v0q1 21 8 40q2 6 5 12q20 40 60 60q6 3 12 5q21 8 43 8t42 -8q7 -2 13 -5q40 -20 60 -60q3 -6 5 -12q7 -20 7 -43v-170q1 -18 13 -30t30 -12t30 12.5t12 29.5v170z" />
    <glyph glyph-name="n" unicode="n" horiz-adv-x="491" 
d="M476 212v0q0 22 -4 43q-2 8 -5 17q-11 37 -34 68q-18 24 -42 42q-31 23 -68 34q-9 3 -17 4q-21 5 -43 5q-21 0 -42 -5q-9 -1 -17 -4v0q-38 -11 -68 -34q0 18 -12.5 30.5t-30.5 12.5q-17 0 -29.5 -12.5t-12.5 -30.5v-340q0 -17 12.5 -29.5t29.5 -12.5q18 0 30.5 12.5
t12.5 29.5v170q0 23 7 43q2 6 5 12q20 41 60 60q7 3 13 5q20 8 42 8q23 0 43 -8q6 -2 12 -5q41 -19 61 -60q2 -6 5 -12q7 -20 7 -43v-170q0 -17 12.5 -29.5t29.5 -12.5q18 0 30.5 12.5t12.5 29.5v170z" />
    <glyph glyph-name="o" unicode="o" horiz-adv-x="455" 
d="M441 217v0v-5v-4v0v0q0 -20 -4 -38q-2 -9 -5 -17q-10 -38 -33 -68h-1q-18 -25 -42 -43q-30 -23 -68 -34q-8 -2 -17 -4q-21 -4 -42 -4h-1q-21 0 -42 4q-9 2 -17 4q-37 11 -68 34q-24 18 -42 43q-23 30 -34 68q-3 8 -5 17q-4 20 -4 42t4 43q2 8 5 17q11 37 34 68
q18 24 42 42q31 23 68 34q8 3 17 4q21 5 42 5h1q21 0 42 -5q9 -1 17 -4q38 -11 68 -34q24 -18 43 -42q23 -31 34 -68q2 -9 4 -17q4 -19 4 -38v0v0zM349 170v0q7 20 7 42q0 23 -7 43q-2 6 -5 12q-20 40 -60 60q-7 3 -13 5q-20 8 -42 8v0q-23 0 -43 -8q-6 -2 -12 -5
q-41 -20 -61 -60q-2 -6 -5 -12q-7 -20 -7 -43q0 -22 7 -42q3 -7 6 -13v0q19 -40 60 -60v0q6 -3 12 -5q20 -7 42 -7h1q22 0 42 7q6 2 12 5h1q40 20 60 60q3 6 5 13z" />
    <glyph glyph-name="p" unicode="p" horiz-adv-x="490" 
d="M52 382v0q0 18 12.5 30.5t30.5 12.5h170q21 0 42 -5q9 -1 17 -4q38 -11 68 -34q24 -18 43 -42q23 -31 34 -68q2 -9 4 -17q4 -21 4 -43q0 -21 -4 -42q-2 -9 -4 -17q-11 -38 -34 -68q-19 -24 -43 -43v0q-30 -23 -68 -34q-8 -2 -17 -4q-21 -4 -42 -4h-57q-24 0 -37 22v0
q-6 9 -6 20q0 18 12.5 30.5t30.5 12.5h57q22 0 42 7q7 2 13 5q40 20 60 60q3 6 5 13q6 18 7 38v0v4v5v0q-1 20 -7 38q-2 6 -5 12q-20 40 -60 60q-6 3 -13 6q-20 7 -42 7h-85q-18 0 -30.5 -12.5t-12.5 -30.5v-510q0 -17 -12.5 -29.5t-29.5 -12.5q-18 0 -30.5 12.5t-12.5 29.5
v595z" />
    <glyph glyph-name="q" unicode="q" horiz-adv-x="457" 
d="M437 382v0q0 18 -12.5 30.5t-29.5 12.5h-170q-22 0 -43 -5q-8 -1 -17 -4q-37 -11 -68 -34q-24 -18 -42 -42q-23 -31 -34 -68q-3 -9 -4 -17q-5 -21 -5 -43q0 -21 5 -42q1 -9 4 -17q11 -38 34 -68q18 -24 42 -43v0q31 -23 68 -34q9 -2 17 -4q21 -4 43 -4h57q23 0 37 22v0
q5 9 5 20q0 18 -12.5 30.5t-29.5 12.5h-57q-22 0 -43 7q-6 2 -12 5q-40 20 -60 60q-3 6 -5 13q-7 18 -7 38v0q-1 2 -1 4t1 5v0q0 20 7 38q2 6 5 12q20 40 60 60l12 6q21 7 43 7h85q18 0 30 -12.5t12 -30.5v-510q0 -17 12.5 -29.5t30.5 -12.5q17 0 29.5 12.5t12.5 29.5v595z
" />
    <glyph glyph-name="r" unicode="r" horiz-adv-x="373" 
d="M363 372v0q0 27 -26 40q-2 0 -4 1q-5 2 -10 3q-8 3 -17 4q-20 5 -42 5t-43 -5q-8 -1 -17 -4q-37 -11 -68 -34v0q0 18 -12.5 30.5t-29.5 12.5q-18 0 -30.5 -12.5t-12.5 -30.5v-340q0 -17 12.5 -29.5t30.5 -12.5q17 0 29.5 12.5t12.5 29.5v170v5v0q1 20 8 38q2 6 5 12
q19 40 60 60q6 3 12 5q20 8 43 8q21 0 40 -7v0q1 0 2 -1h1h1v0v0v0q6 -2 12 -2h2q15 1 25 10v0v0v0v0v0q16 13 16 32z" />
    <glyph glyph-name="s" unicode="s" horiz-adv-x="367" 
d="M358 170v0q-2 6 -5 12q-20 40 -60 60q-6 3 -12 5q-5 2 -9 3q-15 4 -30 4q-2 1 -4 1h-85q-18 0 -30 12.5t-12 29.5q0 18 12 30.5t30 12.5h170q18 0 30 12t12 30t-12 30.5t-30 12.5h-170q-22 0 -42 -8q-7 -2 -13 -5q-40 -20 -60 -60v0q-3 -6 -5 -12q-7 -21 -7 -43t7 -42
q2 -7 5 -13v0q20 -40 60 -60q6 -3 13 -5q4 -2 9 -3q14 -4 29 -4h4h85q18 0 30.5 -12.5t12.5 -30.5q0 -17 -12.5 -29.5t-30.5 -12.5h-170q-18 0 -30 -12.5t-12 -30.5q0 -17 12 -29.5t30 -12.5h170q22 0 43 7q6 2 12 5q40 20 60 60q3 6 5 13q7 20 7 42t-7 43z" />
    <glyph glyph-name="t" unicode="t" horiz-adv-x="345" 
d="M347 42v0q0 18 -12.5 30.5t-30.5 12.5q-22 0 -42 7q-6 2 -12 5q-41 20 -61 60q-2 6 -5 13q-7 20 -7 42v128h127q18 0 30.5 12t12.5 30t-12.5 30.5t-30.5 12.5h-127v127q0 18 -12 30t-30 13v0q-18 0 -30.5 -12.5t-12.5 -30.5v-127h-42q-18 0 -30.5 -12.5t-12.5 -30.5
t12.5 -30t30.5 -12h42v-128v-4v0v0q1 -20 4 -38q2 -9 5 -17q11 -38 34 -68q18 -25 42 -43q30 -23 68 -34q8 -2 17 -4q21 -4 42 -4q18 0 30.5 12.5t12.5 29.5z" />
    <glyph glyph-name="u" unicode="u" horiz-adv-x="481" 
d="M36 212v0q0 -22 5 -42q1 -9 4 -17q11 -38 34 -68q18 -25 42 -43q31 -23 68 -34q9 -2 17 -4q21 -4 43 -4t42 4q9 2 17 4v0q38 11 68 34q0 -17 12.5 -29.5t30.5 -12.5q17 0 29.5 12.5t12.5 29.5v340q0 18 -12.5 30.5t-29.5 12.5q-18 0 -30.5 -12.5t-12.5 -30.5v-170
q0 -22 -7 -42q-2 -7 -5 -13q-20 -40 -60 -60q-6 -3 -13 -5q-20 -7 -42 -7q-23 0 -43 7q-6 2 -12 5q-40 20 -60 60q-3 6 -6 13q-7 20 -7 42v170q0 18 -12.5 30.5t-29.5 12.5q-18 0 -30.5 -12.5t-12.5 -30.5v-170z" />
    <glyph glyph-name="v" unicode="v" horiz-adv-x="407" 
d="M432 382v0q0 18 -12.5 30.5t-30.5 12.5q-24 0 -37 -23l-2 -3l-4 -9l-23 -46l-2 -4l-102 -203l-101 203l-2 4l-23 46v0l-4 9l-3 4v0q-13 22 -37 22q-17 0 -29.5 -12.5t-12.5 -30.5q0 -9 3 -16l2 -4l11 -22l128 -255l2 -5l19 -38l4 -8l4 -8l2 -4q13 -22 37 -22t37 21l3 5v0
l4 8v0l4 8l19 38l2 5l128 255l11 22l2 4q3 7 3 16z" />
    <glyph glyph-name="w" unicode="w" horiz-adv-x="752" 
d="M729 425v0q18 0 30.5 -12.5t12.5 -30.5q0 -9 -4 -16l-2 -4l-158 -317l-10 -19l-2 -4q-13 -22 -37 -22q-21 0 -34 18l-2 2l-13 19l-121 182l-121 -182l-13 -19l-1 -2q-13 -18 -35 -18q-24 0 -37 22l-2 4l-10 19l-158 317l-2 4q-3 7 -3 16q0 18 12.5 30.5t29.5 12.5
q24 0 38 -23l1 -3l136 -272l130 194v0v0l1 1q1 2 3 4l2 2q2 2 5 4l1 1h1q2 2 4 3h1q1 0 1 1q3 1 7 2h1h1q3 1 7 1v0v0v0v0v0v0v0q4 0 8 -1v0h2l6 -2l1 -1h1q2 -1 5 -3v0l1 -1q3 -2 5 -4l2 -2l4 -4v-1h1v0l129 -194l136 272l2 3q13 23 37 23z" />
    <glyph glyph-name="x" unicode="x" horiz-adv-x="436" 
d="M433 72v0l-15 15l-55 55l-2 3l-68 67l68 68l73 73q12 12 12 29q0 18 -12.5 30.5t-30.5 12.5q-17 0 -29 -12l-141 -141l-141 141q-12 12 -29 12t-29.5 -12.5t-12.5 -30.5q0 -17 11 -29l2 -2l69 -69l3 -2l67 -68l-140 -140q-12 -12 -12 -30q0 -17 12.5 -29.5t29.5 -12.5
t29 11l2 2l12 12l127 127l128 -127l11 -12l2 -2q12 -11 29 -11q18 0 30.5 12.5t12.5 29.5q0 18 -13 30z" />
    <glyph glyph-name="y" unicode="y" horiz-adv-x="483" 
d="M461 -43v0v425q0 18 -12.5 30.5t-30.5 12.5q-17 0 -29.5 -12.5t-12.5 -30.5v-170q0 -22 -7 -42q-3 -7 -6 -13q-4 -8 -9 -16q-19 -28 -51 -44v0q-6 -3 -12 -5q-20 -7 -43 -7q-22 0 -42 7q-7 2 -13 5v0q-31 16 -51 44q-5 8 -9 16q-3 6 -5 13q-7 18 -7 39v1v2v2v168
q-1 18 -13 30.5t-30 12.5q-17 0 -29.5 -12.5t-12.5 -30.5v-168v-2v-2v-1v-1v0v0q0 -20 4 -38q2 -9 4 -17q11 -38 34 -68q19 -25 43 -43q10 -8 21 -14q22 -13 47 -20q8 -2 17 -4q21 -4 42 -4q22 0 43 4q9 2 17 4q25 7 46 20q12 7 22 14v-85q0 -22 -7 -42q-3 -7 -6 -13
q-19 -40 -60 -60q-6 -3 -12 -5q-20 -7 -43 -7q-22 0 -42 7q-7 2 -13 5q-40 20 -60 60q-3 6 -5 13q-2 4 -3 9q-1 6 -4 11q-13 22 -37 22q-18 0 -30.5 -12.5t-12.5 -29.5q0 -4 1 -8q0 -3 1 -5q11 -40 35 -72v0q4 -5 8 -9v0v-1q3 -3 5 -6v0v0h1v0v0q13 -15 29 -27v0
q30 -23 68 -34q8 -2 17 -4q21 -4 42 -4q22 0 43 4q9 2 17 4q37 11 68 34q24 19 42 43q23 30 34 68q3 8 4 17q4 18 5 38v0v0v4v5v-5z" />
    <glyph glyph-name="z" unicode="z" horiz-adv-x="444" 
d="M449 42v0q0 18 -12.5 30t-30.5 13h-237l85 85l12 12l13 13l3 2l132 132l7 8l3 3l12 12q13 12 13 30t-12.5 30.5t-30.5 12.5h-340q-17 0 -29.5 -12.5t-12.5 -30.5q0 -17 12.5 -29.5t29.5 -12.5h238l-13 -12v-1v0l-15 -15l-55 -55l-2 -2l-12 -12v0l-1 -1l-1 -1v0l-11 -11
l-3 -3l-55 -55l-2 -2l-12 -12v0l-1 -1v0l-12 -12l-3 -3l-47 -47l-8 -8l-2 -2l-12 -12l-2 -1q-11 -13 -11 -30t12.5 -29.5t29.5 -12.5h340q18 0 30.5 12.5t12.5 29.5z" />
    <glyph glyph-name="braceleft" unicode="{" horiz-adv-x="277" 
d="M232 59v0l-2 4q-57 117 -62 256v2q-1 8 -7 13.5t-14 5.5q8 0 14 5.5t7 13.5v2q5 138 62 256l2 4q4 8 4 16q0 18 -12.5 30.5t-30.5 12.5q-24 0 -37 -22q-1 -1 -1 -2q-1 -1 -1 -2q-61 -125 -70 -272h-1q-18 0 -30.5 -12t-12.5 -30t12.5 -30.5t30.5 -12.5l1 1
q9 -146 69 -272q1 -2 3 -4q13 -22 37 -22q17 0 29.5 12.5t12.5 29.5q0 9 -3 17z" />
    <glyph glyph-name="bar" unicode="|" horiz-adv-x="145" 
d="M31 -65v0v-4q2 -27 28 -38q17 -6 32.5 1.5t21.5 23.5q2 7 3 13v4v705q-3 26 -28 37q-17 6 -32.5 -1t-22.5 -24q-3 -8 -2 -17v-700z" />
    <glyph glyph-name="braceright" unicode="}" horiz-adv-x="315" 
d="M63 59v0l2 4q57 117 62 256q1 1 1 2q1 8 7 13.5t14 5.5q-8 0 -14 5.5t-7 13.5q0 1 -1 2q-5 138 -62 256l-2 4q-3 8 -3 16q0 18 12.5 30.5t29.5 12.5q25 0 38 -22q0 -1 1 -2q0 -1 1 -2q60 -125 70 -272h1q17 0 29.5 -12t12.5 -30t-12.5 -30.5t-29.5 -12.5q-1 0 -1 1
q-10 -146 -70 -272l-2 -4q-13 -22 -37 -22q-18 0 -30.5 12.5t-12.5 29.5q0 9 3 17z" />
    <glyph glyph-name="asciitilde" unicode="~" horiz-adv-x="540" 
d="M509 265v0q1 -10 -2 -20l-2 -4v0q-40 -82 -135 -97q-16 -2 -31 -1q-63 6 -107 49q-2 1 -3 3q-28 26 -69 23q-32 -4 -53 -27l-1 -1l-2 -2v0v-1q-10 -10 -26 -12q-18 -2 -31 8.5t-16 28.5q-1 18 9 32q42 49 111 59q15 1 30 0q66 -5 111 -51q28 -27 68 -24q48 8 68 48
q1 2 1 4q11 19 33 23q18 1 31.5 -9.5t15.5 -28.5z" />
    <glyph glyph-name="exclamdown" unicode="&#xa1;" horiz-adv-x="154" 
d="M78 335v0q18 0 30.5 -12.5t12.5 -30.5v-425q0 -17 -12.5 -29.5t-30.5 -12.5t-30 12.5t-12 29.5v425q0 18 12 30.5t30 12.5zM78 420v0q-20 0 -34 14t-14 34t14 34t34 14t34 -14t14 -34t-14 -34t-34 -14z" />
    <glyph glyph-name="cent" unicode="&#xa2;" horiz-adv-x="512" 
d="M80 305v0q3 4 5 9q-2 -5 -5 -9zM88 318v0q2 5 5 9q-3 -4 -5 -9zM145 43v0q-17 12 -30 27q13 -15 30 -27v0zM426 170v0q16 -3 26 -14.5t10 -27.5q0 -8 -3 -16q-28 -50 -77.5 -81t-109.5 -31q-16 0 -31 3l-16 -42l-1 -4q-3 -6 -7 -11q-12 -14 -29 -15.5t-31 10.5
q-20 19 -13 44l1 5l16 42q-8 5 -16 11q-17 12 -30 27l-4 4q-1 2 -3 3q-1 1 -1 3l-2 2h-1q-1 2 -2 3q-1 2 -3 4l-2 4v0h-1v0q-1 1 -1 3q-1 0 -1 1v0l-2 2l-2 4l-2 4q-2 2 -3 5l-2 4t-3 5q0 2 -1 3q-4 8 -6 15l-2 4q0 2 -1 4q0 1 -1 2v0v2q-1 1 -1 2l-2 8v0v1q-1 2 -1 3t-1 2
v3v0q-1 3 -1 5q-2 11 -3 21v4v3v10v10v2v4v0q1 13 4 26v3q1 1 1 2v0q0 2 1 3v1l2 8q2 5 3 11q1 1 2 3q0 2 1 5l2 4v0q1 3 2 5t2 5q3 4 5 9q1 2 3 4q2 5 5 9q3 5 7 10q1 2 2 3v0q2 2 4 5q1 1 2 3q65 77 164 77q16 0 31 -2l15 42q3 8 8 15q12 13 29 14.5t31 -9.5
q21 -19 14 -45l-17 -46q48 -30 76 -81v0v0q3 -7 3 -15q0 -18 -12.5 -30.5t-30.5 -12.5q-10 0 -19 5q-12 6 -18 17q-12 20 -29 34l-82 -226v0h1q22 0 43 7q44 17 67 57q6 11 18 17q6 3 13 4h13zM145 213v0q0 -23 7 -43q2 -6 5 -12q12 -26 34 -44l82 226v0h-1q-22 0 -42 -7
q-7 -2 -13 -5q-40 -20 -60 -60q-3 -6 -5 -13q-7 -20 -7 -42zM68 153v0l-2 8q1 -5 3 -10q-1 1 -1 2zM68 272v0q2 5 3 11q-3 -9 -5 -19z" />
    <glyph glyph-name="sterling" unicode="&#xa3;" horiz-adv-x="538" 
d="M102 0v0h345q17 0 29 12.5t12 29.5q0 18 -12 30t-29 12h-252q52 81 55 177h85q17 0 29.5 12.5t12.5 29.5q0 8 -4 16q-13 26 -38 26h-94q-11 46 -35 88v0q-1 2 -3 5q-13 25 -13 51q0 45 31.5 76t76.5 31q44 0 75.5 -31t31.5 -76q0 -17 12 -29.5t30 -12.5q17 0 29 12.5
t12 29.5q0 79 -56 135t-134 56q-67 0 -119 -41.5t-68 -107.5q-4 -20 -4 -42q0 -47 22 -90l1 -1q2 -4 5 -8q12 -22 19 -45h-43q-17 0 -29.5 -12.5t-12.5 -29.5t12.5 -29.5t29.5 -12.5h55q-5 -105 -81 -178q-5 -4 -9 -8q-16 -14 -16 -33q0 -17 12.5 -29.5t29.5 -12.5z" />
    <glyph glyph-name="currency" unicode="&#xa4;" horiz-adv-x="564" 
d="M460 223v0l33 -33q13 -14 13 -30t-13 -30q-14 -12 -30 -12t-30 12l-33 33q-52 -35 -117 -35t-117 35l-33 -33q-14 -12 -30.5 -12t-30.5 12q-12 14 -12 30t12 30l34 33q-36 52 -36 117t36 117l-34 33q-12 14 -12 30.5t12 30.5q14 12 30.5 12t29.5 -12l1 -1l33 -32
q52 35 117 35t117 -35l33 32v1q13 12 30 12t30 -12q13 -14 13 -30.5t-13 -30.5l-33 -33q35 -52 35 -117t-35 -117zM398 285v0q12 26 12 55q0 30 -12 55q-20 41 -60 60q-26 13 -55 13q-30 0 -55 -13q-40 -19 -60 -60q-13 -25 -13 -55q0 -29 13 -55q20 -40 60 -60
q25 -12 55 -12q29 0 55 12q40 20 60 60z" />
    <glyph glyph-name="yen" unicode="&#xa5;" horiz-adv-x="675" 
d="M593 680v0q17 0 29.5 -12.5t12.5 -29.5q0 -13 -7 -24l-3 -4l-181 -242h69q17 0 29.5 -12.5t12.5 -29.5q0 -18 -12.5 -30.5t-29.5 -12.5h-133v-85h133q17 0 29.5 -12.5t12.5 -29.5q0 -18 -12.5 -30.5t-29.5 -12.5h-133v-70q0 -18 -12.5 -30.5t-29.5 -12.5
q-18 0 -30.5 12.5t-12.5 30.5v70h-132q-18 0 -30.5 12.5t-12.5 30.5q0 17 12.5 29.5t30.5 12.5h132v85h-132q-18 0 -30.5 12.5t-12.5 30.5q0 17 12.5 29.5t30.5 12.5h69l-182 243l-3 3q-7 11 -7 24q0 17 12.5 29.5t30.5 12.5q20 0 33 -15l2 -4l177 -236l43 -56l42 56
l177 236l3 4v0q13 15 33 15z" />
    <glyph glyph-name="brokenbar" unicode="&#xa6;" horiz-adv-x="145" 
d="M73 255v0q17 0 29.5 -12.5t12.5 -29.5v-255q0 -18 -12.5 -30.5t-29.5 -12.5q-18 0 -30.5 12.5t-12.5 30.5v255q0 17 12.5 29.5t30.5 12.5zM73 680v0q17 0 29.5 -12.5t12.5 -29.5v-255q0 -18 -12.5 -30.5t-29.5 -12.5q-18 0 -30.5 12.5t-12.5 30.5v255q0 17 12.5 29.5
t30.5 12.5z" />
    <glyph glyph-name="section" unicode="&#xa7;" horiz-adv-x="465" 
d="M422 170v0q-14 -24 -34 -42q20 -19 34 -43q23 -38 23 -85q0 -46 -23 -85q-52 -85 -147 -85h-85q-94 0 -147 85q-23 39 -23 85v0v0v0v0q1 18 13 30.5t30 12.5q17 0 29.5 -12.5t12.5 -30.5v0v0v-4q3 -34 25.5 -56t55.5 -25h4h5h76h4h5q33 3 55.5 25t24.5 56v4v4
q-2 35 -26.5 58t-58.5 23h-85q-29 0 -56 10q-31 11 -56 33q-21 18 -35 42q-23 39 -23 85t23 85q14 24 35 43q-21 18 -35 42q-23 39 -23 85t23 85q53 85 147 85h85q95 0 147 -85q23 -39 23 -85q0 -18 -12.5 -30t-29.5 -12q-18 0 -30.5 12t-12.5 30v4q-2 35 -26.5 58t-58.5 23
h-85q-34 0 -58 -23t-27 -58v-4v-4q3 -35 27 -58t58 -23h85q30 0 57 -10q31 -11 56 -32q20 -19 34 -43q23 -39 23 -85t-23 -85zM360 251v0v4v4q-2 35 -26.5 58t-58.5 23h-85q-34 0 -58 -23t-27 -58v-4v-4q3 -35 27 -58t58 -23h85q34 0 58.5 23t26.5 58z" />
    <glyph glyph-name="dieresis" unicode="&#xa8;" horiz-adv-x="346" 
d="M269 585v0q-20 0 -34 14t-14 34t14 33.5t34 13.5q19 0 33 -13.5t14 -33.5t-14 -34t-33 -14zM78 585v0q-20 0 -34 14t-14 34t14 33.5t34 13.5t34 -13.5t14 -33.5t-14 -34t-34 -14z" />
    <glyph glyph-name="copyright" unicode="&#xa9;" horiz-adv-x="740" 
d="M370 680v0q141 0 240.5 -99.5t99.5 -240.5t-99.5 -240.5t-240.5 -99.5t-240.5 99.5t-99.5 240.5t99.5 240.5t240.5 99.5zM370 85v0q106 0 180.5 74.5t74.5 180.5t-74.5 180.5t-180.5 74.5t-180.5 -74.5t-74.5 -180.5t74.5 -180.5t180.5 -74.5zM370 425v0q-35 0 -60 -25
t-25 -60t25 -60t60 -25q31 0 55 20l2 2l1 1q12 9 27 9q18 0 30 -12t12 -30t-12 -30q-1 -2 -3 -3q-47 -42 -112 -42q-70 0 -120 50t-50 120t50 120t120 50q64 0 111 -42q2 -1 3 -2l1 -1q12 -13 12 -30q0 -18 -12 -30.5t-30 -12.5q-15 0 -26 10q-2 1 -4 3v0v0v0q-24 20 -55 20
z" />
    <glyph glyph-name="ordfeminine" unicode="&#xaa;" horiz-adv-x="380" 
d="M360 545v0v170v43q-1 18 -13 30t-30 12h-127q-70 0 -120 -49.5t-50 -120.5q0 -70 50 -120t120 -50h3.5h5.5h3.5h1.5q7 0 14 3v0q29 12 29 40q0 17 -12.5 29.5t-30.5 12.5h-12h-2h-2q-36 2 -59.5 26.5t-23.5 58.5t23 58.5t57 26.5h5h5h34h4h3q17 -2 28 -13.5t11 -28.5v-1
v-127v-45q1 -8 4 -15q13 -25 38 -25q18 0 30 12.5t13 30.5v42z" />
    <glyph glyph-name="guillemotleft" unicode="&#xab;" horiz-adv-x="497" 
d="M236 142v0v0q16 -15 16 -34t-13.5 -32.5t-32.5 -13.5q-15 0 -28 11l-132 105q-16 14 -16 35q0 20 16 35l132 105q13 10 28 10q19 0 32.5 -13.5t13.5 -31.5q0 -21 -17 -35l-88 -70zM451 142v0h1q15 -15 15 -34t-13.5 -32.5t-31.5 -13.5q-16 0 -29 11l-131 105
q-17 14 -17 35q0 20 17 35l131 105q13 10 29 10q18 0 31.5 -13.5t13.5 -31.5q0 -21 -17 -35l-87 -70z" />
    <glyph glyph-name="logicalnot" unicode="&#xac;" horiz-adv-x="485" 
d="M455 285v0q0 17 -12.5 29.5t-29.5 12.5h-340q-18 0 -30.5 -12.5t-12.5 -29.5q0 -18 12.5 -30.5t30.5 -12.5h297v-42q0 -18 12.5 -30.5t30.5 -12.5q17 0 29.5 12.5t12.5 30.5v85z" />
    <glyph glyph-name="registered" unicode="&#xae;" horiz-adv-x="740" 
d="M699 425v0q11 -41 11 -85t-11 -85q-22 -84 -80 -146q-29 -32 -65 -55q-83 -54 -184 -54q-22 0 -42 3q-45 5 -85 22q-155 66 -202 230q-11 41 -11 85t11 85q12 45 35 85q3 6 7 12q0 1 1 2q23 36 55 65q45 42 104 66q40 17 85 22q20 3 42 3q94 0 171.5 -46.5t122.5 -123.5
q23 -40 35 -85zM610 255v0q15 40 15 85t-15 85q-17 48 -50 85q-77 85 -190 85q-22 0 -42 -4q-47 -7 -85 -30q-24 -14 -44 -32q-10 -9 -19 -19q-20 -22 -34 -48q-10 -18 -16 -37q-15 -40 -15 -85t15 -85q32 -88 113 -136q38 -22 85 -30q20 -4 42 -4q66 0 122 31q38 21 67 53
q34 37 51 86zM500 340v0q-14 -36 -44 -59l26 -26l12 -12l1 -1q12 -12 12 -29q0 -18 -12.5 -30.5t-29.5 -12.5q-18 0 -31 13l-72 72h-25v-42q0 -18 -12.5 -30.5t-29.5 -12.5q-18 0 -30.5 12.5t-12.5 30.5v255q0 7 3 14q12 28 40 28h85q83 0 120 -85q7 -20 7 -42q0 -23 -7 -43
zM394 343v0q28 12 28 40q0 17 -12.5 29.5t-29.5 12.5h-43v-40v-2v-3v-40h43q7 0 14 3z" />
    <glyph glyph-name="macron" unicode="&#xaf;" horiz-adv-x="502" 
d="M464 590v0q0 18 -12 30.5t-30 12.5h-340q-18 0 -30 -12.5t-12 -30.5q0 -17 12 -29.5t30 -12.5h340q18 0 30 12.5t12 29.5z" />
    <glyph glyph-name="degree" unicode="&#xb0;" horiz-adv-x="289" 
d="M143 459v0q-47 0 -80 33t-33 80t33 80t80 33t80.5 -33t33.5 -80t-33.5 -80t-80.5 -33zM143 615v0q-17 0 -29.5 -12.5t-12.5 -30.5q0 -17 12.5 -29.5t29.5 -12.5q18 0 30.5 12.5t12.5 29.5q0 18 -12.5 30.5t-30.5 12.5z" />
    <glyph glyph-name="plusminus" unicode="&#xb1;" horiz-adv-x="505" 
d="M423 85v0q17 0 29.5 -12.5t12.5 -29.5q0 -18 -12.5 -30.5t-29.5 -12.5h-340q-18 0 -30.5 12.5t-12.5 30.5q0 17 12.5 29.5t30.5 12.5h340zM83 307v0q-18 0 -30.5 12.5t-12.5 30.5t12.5 30t30.5 12h127v128q0 18 12.5 30t30.5 12q17 0 29.5 -12t12.5 -30v-128h128
q17 0 29.5 -12t12.5 -30t-12.5 -30.5t-29.5 -12.5h-128v-127q0 -18 -12.5 -30t-29.5 -12q-18 0 -30.5 12t-12.5 30v127h-127z" />
    <glyph glyph-name="uni00B2" unicode="&#xb2;" horiz-adv-x="323" 
d="M264 339v0q17 0 29 -12.5t12 -29.5t-12 -29.5t-29 -12.5h-202q-18 0 -30 12.5t-12 29.5t12 30l6 6l163 171q14 16 14 37q0 23 -16.5 39.5t-39.5 16.5t-39.5 -16.5t-16.5 -39.5q0 -17 -12 -29.5t-29 -12.5q-18 0 -30 12.5t-12 29.5q0 58 40.5 98.5t98.5 40.5
q51 0 89.5 -32.5t47.5 -83.5q2 -12 2 -23q0 -52 -36 -94q-2 -2 -4 -5l-99 -103h105z" />
    <glyph glyph-name="uni00B3" unicode="&#xb3;" horiz-adv-x="306" 
d="M285 408v0q0 -3 1 -7v-6v-7q-1 -2 -1 -5q-6 -55 -45.5 -91.5t-93.5 -36.5q-72 0 -119 67l-2 4q-5 10 -5 20q0 17 12.5 29.5t29.5 12.5t30 -13l8 -10q5 -9 14 -16q15 -10 32 -10q21 0 36.5 13.5t19.5 34.5v1v1v6v6v1q-3 11 -11 17q-7 6 -16 7h-40q-20 0 -34 19q-5 7 -7 16
v7v7q2 9 7 16q14 19 34 19h40q9 1 16 7q9 7 11 18v6v6v1q-3 21 -19 35t-37 14q-29 0 -47 -27l-1 -2q-3 -5 -8 -9q-13 -11 -28 -11q-17 0 -29.5 12t-12.5 30q0 10 5 19q1 2 2 3q46 68 119 68q56 0 96 -38t44 -95v-6v-7q-1 -3 -1 -6v-1q0 -3 -1 -6q0 -3 -1 -6l-2 -6v-0.5
t-0.5 -1t-0.5 -1v-0.5l-1 -3q0 -1 -0.5 -1.5t-0.5 -1.5l-2 -6l-2 -4l-4 -6q-5 -9 -11 -16q6 -7 11 -16q12 -20 15 -44z" />
    <glyph glyph-name="acute" unicode="&#xb4;" horiz-adv-x="230" 
d="M30 552v0q0 18 12 31l85 84v1q13 12 30 12q18 0 30.5 -12.5t12.5 -30.5q0 -17 -12 -29l-1 -1l-84 -84l-1 -1q-13 -12 -29 -12q-18 0 -30.5 12.5t-12.5 29.5z" />
    <glyph glyph-name="mu" unicode="&#xb5;" horiz-adv-x="465" 
d="M445 382v0q0 18 -12.5 30.5t-30.5 12.5q-17 0 -29.5 -12.5t-12.5 -30.5v-170q0 -22 -7 -42l-6 -12q-19 -41 -60 -61q-6 -3 -12 -5q-20 -7 -43 -7q-22 0 -42 7q-6 2 -13 5q-40 20 -60 60q-3 7 -5 13q-7 20 -7 42v170q0 18 -12.5 30.5t-30.5 12.5q-17 0 -29.5 -12.5
t-12.5 -30.5v-595q0 -17 12.5 -29.5t29.5 -12.5q18 0 30.5 12.5t12.5 29.5v255q30 -23 68 -33q8 -3 17 -5q21 -4 42 -4q22 0 43 4q9 2 17 5v0q37 10 68 33q0 -17 12.5 -29.5t29.5 -12.5q18 0 30.5 12.5t12.5 29.5v340z" />
    <glyph glyph-name="paragraph" unicode="&#xb6;" horiz-adv-x="462" 
d="M444 637v0q0 18 -12 30.5t-30 12.5h-170q-22 0 -43 -4q-8 -2 -16 -5q-38 -11 -69 -34q-24 -18 -42 -42q-23 -31 -34 -68q-2 -8 -4 -17q-4 -21 -4 -42q0 -22 4 -43q2 -9 4 -17q11 -37 34 -68q18 -24 42 -42v0q31 -23 69 -34q8 -3 16 -5q19 -4 39 -4h131v-213
q0 -17 12.5 -29.5t30.5 -12.5t30 12.5t12 29.5v595z" />
    <glyph glyph-name="periodcentered" unicode="&#xb7;" horiz-adv-x="158" 
d="M78 292v0q-20 0 -34 14t-14 34t14 34t34 14t34 -14t14 -34t-14 -34t-34 -14z" />
    <glyph glyph-name="periodcentered" unicode="&#x2219;" horiz-adv-x="158" 
d="M78 292v0q-20 0 -34 14t-14 34t14 34t34 14t34 -14t14 -34t-14 -34t-34 -14z" />
    <glyph glyph-name="cedilla" unicode="&#xb8;" horiz-adv-x="230" 
d="M200 -127v0q0 83 -85 120v21q0 18 -12.5 30.5t-29.5 12.5q-18 0 -30.5 -12.5t-12.5 -30.5v-57q0 -17 12.5 -29.5t30.5 -12.5q17 0 29.5 -12.5t12.5 -29.5q0 -18 -12.5 -30.5t-29.5 -12.5q-18 0 -30.5 -12.5t-12.5 -30.5q0 -17 12.5 -29.5t30.5 -12.5q22 0 42 7
q85 37 85 121z" />
    <glyph glyph-name="uni00B9" unicode="&#xb9;" horiz-adv-x="210" 
d="M190 638v0q0 17 -12.5 29.5t-30.5 12.5q-17 0 -30 -12l-84 -85q-1 0 -1 -1v0q-12 -12 -12 -29q0 -18 12.5 -30.5t29.5 -12.5t30 12q0 1 1 1l12 12v-237q0 -18 12.5 -30.5t29.5 -12.5q18 0 30.5 12.5t12.5 30.5v340z" />
    <glyph glyph-name="ordmasculine" unicode="&#xba;" horiz-adv-x="380" 
d="M190 800v0q70 0 120 -49.5t50 -120.5q0 -70 -50 -120t-120 -50q-71 0 -120.5 50t-49.5 120q0 71 49.5 120.5t120.5 49.5zM190 545v0q35 0 60 25t25 60q0 36 -25 60.5t-60 24.5q-36 0 -60.5 -24.5t-24.5 -60.5q0 -35 24.5 -60t60.5 -25z" />
    <glyph glyph-name="guillemotright" unicode="&#xbb;" horiz-adv-x="497" 
d="M451 248v0q16 -15 16 -35q0 -21 -17 -35l-131 -105q-13 -11 -28 -11q-19 0 -32.5 13.5t-13.5 32.5t15 34h1l88 71l-87 70q-17 14 -17 35q0 18 13.5 31.5t32.5 13.5q15 0 28 -10zM235 248v0q17 -15 17 -35q0 -21 -17 -35l-131 -105q-13 -11 -29 -11q-18 0 -31.5 13.5
t-13.5 32.5t15 34v0l89 71l-87 70q-17 14 -17 35q0 18 13.5 31.5t31.5 13.5q16 0 29 -10z" />
    <glyph glyph-name="onequarter" unicode="&#xbc;" horiz-adv-x="712" 
d="M589 629v0q15 -24 1 -46l-386 -532l-3 -3q-4 -5 -9 -9q-16 -10 -32.5 -6.5t-26.5 17.5q-15 24 -1 47l3 4l383 528q5 7 12 12q16 10 32.5 6.5t26.5 -18.5zM658 231v0q15 0 25.5 -10.5t10.5 -25.5t-10.5 -25.5t-25.5 -10.5h-17v-123q0 -15 -10.5 -25.5t-25.5 -10.5
t-25.5 10.5t-10.5 25.5v123h-123q-15 0 -25.5 10.5t-10.5 25.5q0 11 6 20l161 215q12 14 28 14q15 0 25.5 -10.5t10.5 -25.5v-177h17zM569 231v0v69l-51 -69h51zM190 298v0q0 -18 -12.5 -30.5t-30.5 -12.5q-17 0 -29.5 12.5t-12.5 30.5v237l-12 -12q-1 0 -1 -1
q-13 -12 -30 -12t-29.5 12.5t-12.5 30.5q0 17 12 29v1h1l84 85q12 12 30 12t30.5 -12.5t12.5 -29.5v-340z" />
    <glyph glyph-name="onehalf" unicode="&#xbd;" horiz-adv-x="777" 
d="M718 84v0q17 0 29 -12.5t12 -29.5t-12 -29.5t-29 -12.5h-203q-17 0 -29 12.5t-12 29.5t12 29l6 7l163 170q14 17 14 38q0 23 -16.5 39t-39.5 16t-39.5 -16t-16.5 -39q0 -18 -12 -30t-30 -12q-17 0 -29 12t-12 30q0 57 40.5 98t98.5 41q51 0 89.5 -32.5t47.5 -83.5
q2 -12 2 -23q0 -53 -36 -94q-2 -2 -4 -5l-99 -103h105zM589 629v0q15 -24 1 -46l-386 -532l-3 -3q-4 -5 -9 -9q-16 -10 -32.5 -6.5t-26.5 17.5q-15 24 -1 47l3 4l383 528q5 7 12 12q16 10 32.5 6.5t26.5 -18.5zM190 298v0q0 -18 -12.5 -30.5t-30.5 -12.5t-30 12.5t-12 30.5
v237l-12 -12q-1 0 -1 -1q-13 -12 -30 -12t-29.5 12.5t-12.5 30.5q0 17 11 29h1q0 1 1 1l84 85q12 12 30 12t30.5 -12.5t12.5 -29.5v-340z" />
    <glyph glyph-name="threequarters" unicode="&#xbe;" horiz-adv-x="759" 
d="M285 383v0q-5 -55 -44.5 -91.5t-93.5 -36.5q-73 0 -120 67l-2 4q-5 9 -5 20q0 17 12.5 29.5t29.5 12.5t30 -13l8 -10q6 -9 14 -16q15 -10 33 -10q20 0 35.5 13.5t19.5 34.5v1v1q1 2 1 5q0 4 -1 6v2q-3 10 -11 17q-7 6 -16 7h-39q-21 0 -35 18q-5 8 -7 17v7v6q2 10 7 17
q14 18 35 18h39q9 2 16 7q9 8 11 19q1 3 1 6t-1 6v1q-3 21 -18.5 34.5t-36.5 13.5q-30 0 -48 -26l-1 -2q-3 -5 -8 -10q-12 -10 -28 -10q-17 0 -29.5 12t-12.5 30q0 10 5 19q1 2 2 3q46 68 120 68q56 0 95.5 -38t43.5 -95v-6v-7q-1 -3 -1 -6v-2q0 -2 -1 -5q0 -3 -1 -6l-2 -6
v-0.5v-1.5t-0.5 -1.5l-0.5 -0.5l-1 -3v-1t-1 -1l-2 -6l-2 -4q-2 -4 -4 -7q-4 -8 -10 -15q6 -8 10 -16q12 -20 15 -44q0 -3 1 -7v-7v-6t-1 -5zM622 629v0q14 -24 0 -46l-386 -532l-2 -3q-4 -5 -10 -9q-15 -10 -31.5 -6.5t-27.5 17.5q-14 24 0 47l2 4l384 528q5 7 12 12
q15 10 32 6.5t27 -18.5zM701 231v0q14 0 25 -10.5t11 -25.5t-11 -25.5t-25 -10.5h-18v-123q0 -15 -10.5 -25.5t-25.5 -10.5t-25.5 10.5t-10.5 25.5v123h-123q-15 0 -25.5 10.5t-10.5 25.5q0 11 6 20l161 215q12 14 28 14q15 0 25.5 -10.5t10.5 -25.5v-177h18zM611 231v0v69
l-51 -69h51z" />
    <glyph glyph-name="questiondown" unicode="&#xbf;" horiz-adv-x="420" 
d="M167 -250v0q-56 16 -91.5 61t-35.5 104q0 18 3 36q16 66 70 104q2 1 3 2q51 36 51 98v57q0 18 12.5 30.5t30.5 12.5q10 0 18 -4q24 -13 24 -39v-61q-1 -36 -13 -69q-22 -57 -72 -93q-2 -2 -4 -3q-1 0 -1 -1h-0.5h-0.5v0v0q-36 -27 -36 -70q0 -47 42 -74q19 -11 43 -11
q23 0 42 11q43 27 43 74q0 18 12 30.5t30 12.5t30.5 -12.5t12.5 -30.5q0 -59 -36 -104t-92 -61q-20 -5 -42 -5t-43 5zM210 328v0q-20 0 -34.5 14.5t-14.5 34.5t14.5 34t34.5 14t34 -14t14 -34t-14 -34.5t-34 -14.5z" />
    <glyph glyph-name="Agrave" unicode="&#xc0;" 
 />
    <glyph glyph-name="Aacute" unicode="&#xc1;" 
 />
    <glyph glyph-name="Acircumflex" unicode="&#xc2;" 
 />
    <glyph glyph-name="Atilde" unicode="&#xc3;" 
 />
    <glyph glyph-name="Adieresis" unicode="&#xc4;" 
 />
    <glyph glyph-name="Aring" unicode="&#xc5;" 
 />
    <glyph glyph-name="AE" unicode="&#xc6;" horiz-adv-x="987" 
 />
    <glyph glyph-name="Ccedilla" unicode="&#xc7;" horiz-adv-x="586" 
 />
    <glyph glyph-name="Egrave" unicode="&#xc8;" horiz-adv-x="655" 
 />
    <glyph glyph-name="Eacute" unicode="&#xc9;" horiz-adv-x="652" 
d="M218 382v0h312q18 0 30 -12.5t12 -29.5q0 -18 -12 -30.5t-30 -12.5h-312q-17 0 -29.5 12.5t-12.5 30.5q0 17 12.5 29.5t29.5 12.5zM360 722v0q-18 0 -30 12.5t-12 30.5q0 17 12 30l85 85v0q12 12 30 12t30.5 -12.5t12.5 -29.5q0 -18 -13 -30v-1l-84 -83l-2 -2
q-12 -12 -29 -12zM619 84v0q17 -2 27.5 -13.5t10.5 -28.5t-12 -29.5t-30 -12.5h-510q-18 0 -30 12.5t-12 29.5v595q0 17 11.5 29t28.5 13q1 1 2 1h510q1 0 2 -1q17 -1 28.5 -13t11.5 -29q0 -18 -12 -30t-30 -12h-467v-41v-2v-425v-2v-41h471z" />
    <glyph glyph-name="Ecircumflex" unicode="&#xca;" horiz-adv-x="655" 
 />
    <glyph glyph-name="Edieresis" unicode="&#xcb;" horiz-adv-x="652" 
 />
    <glyph glyph-name="Igrave" unicode="&#xcc;" horiz-adv-x="167" 
 />
    <glyph glyph-name="Iacute" unicode="&#xcd;" horiz-adv-x="178" 
 />
    <glyph glyph-name="Icircumflex" unicode="&#xce;" horiz-adv-x="178" 
 />
    <glyph glyph-name="Idieresis" unicode="&#xcf;" horiz-adv-x="183" 
 />
    <glyph glyph-name="Eth" unicode="&#xd0;" horiz-adv-x="717" 
 />
    <glyph glyph-name="Ntilde" unicode="&#xd1;" horiz-adv-x="679" 
 />
    <glyph glyph-name="Ograve" unicode="&#xd2;" horiz-adv-x="711" 
 />
    <glyph glyph-name="Oacute" unicode="&#xd3;" horiz-adv-x="711" 
d="M360 680v0q141 0 240.5 -99.5t99.5 -240.5q0 -140 -99.5 -240t-240.5 -100t-240.5 100t-99.5 240q0 141 99.5 240.5t240.5 99.5zM360 85v0q105 0 180 75t75 180q0 106 -75 180.5t-180 74.5q-106 0 -180.5 -74.5t-74.5 -180.5q0 -105 74.5 -180t180.5 -75zM360 723v0
q-18 0 -30.5 12.5t-12.5 29.5q0 18 13 30l85 85v0q12 13 30 13q17 0 29.5 -12.5t12.5 -30.5q0 -17 -12 -30v0l-84 -84l-2 -2q-12 -11 -29 -11z" />
    <glyph glyph-name="Ocircumflex" unicode="&#xd4;" horiz-adv-x="708" 
 />
    <glyph glyph-name="Otilde" unicode="&#xd5;" horiz-adv-x="711" 
 />
    <glyph glyph-name="Odieresis" unicode="&#xd6;" horiz-adv-x="748" 
 />
    <glyph glyph-name="multiply" unicode="&#xd7;" horiz-adv-x="411" 
d="M353 157v0q12 13 12 30t-12 30l-90 90l90 91q12 13 12 30t-12 30q-13 12 -30 12t-30 -12l-91 -90l-90 90q-13 12 -30 12t-30 -12q-12 -13 -12 -30t12 -30l90 -90l-90 -91q-12 -13 -12 -30t12 -30q13 -12 30 -12t30 12l91 90l90 -90q13 -12 30 -12t30 12z" />
    <glyph glyph-name="Oslash" unicode="&#xd8;" horiz-adv-x="711" 
 />
    <glyph glyph-name="Ugrave" unicode="&#xd9;" horiz-adv-x="663" 
 />
    <glyph glyph-name="Uacute" unicode="&#xda;" horiz-adv-x="663" 
 />
    <glyph glyph-name="Ucircumflex" unicode="&#xdb;" horiz-adv-x="663" 
 />
    <glyph glyph-name="Udieresis" unicode="&#xdc;" horiz-adv-x="663" 
 />
    <glyph glyph-name="Yacute" unicode="&#xdd;" horiz-adv-x="536" 
 />
    <glyph glyph-name="Thorn" unicode="&#xde;" horiz-adv-x="500" 
 />
    <glyph glyph-name="germandbls" unicode="&#xdf;" horiz-adv-x="614" 
d="M599 183v0v15q-3 35 -18 65q-20 41 -57 67q-8 6 -17 11q-17 10 -35 16q-5 2 -10 3q-16 4 -32 7q-2 1 -5 1q-48 10 -99 10q-8 0 -14.5 5t-8.5 13v0v0v0.5v0.5q-1 2 -1 4q0 3 1 5v0v0q2 27 20.5 45t45.5 18h17q13 0 24 2q40 8 69 35l4 4q18 19 28 44q3 7 5 16q4 15 4 32
q0 90 -94 128v0h-1q-3 1 -5 1q0 1 -1 1h-1v0q-36 9 -73 9q-125 0 -213 -89q-41 -42 -64 -98q-8 -21 -13 -44q-5 -20 -7 -41q-1 -13 -1 -25v-401q0 -18 12.5 -30.5t30.5 -12.5q17 0 29.5 12.5t12.5 30.5v401q0 12 2 25q2 21 9 41q8 23 20 44q35 56 95 83q40 19 87 19
q26 0 51 -6v0v0v0q3 -1 5 -2q34 -13 34 -46q0 -20 -14 -34t-35 -14h-17q-51 0 -91 -30q-8 -6 -15 -14q-19 -18 -30 -41q-13 -26 -15 -57v-2q-1 -4 -1 -8q0 -7 1 -15v-1v-2q2 -8 5 -17q15 -44 56 -64q22 -11 47 -11q57 0 110 -14h1v0l10 -2l1 -1h2v0q7 -3 14 -7
q40 -23 49 -70q1 -7 1 -15q0 -41 -28.5 -69.5t-68.5 -28.5h-155v0h-2q-18 0 -30.5 -12.5t-12.5 -29.5q0 -18 12.5 -30.5t30.5 -12.5h166q95 9 145 85q28 44 28 98z" />
    <glyph glyph-name="agrave" unicode="&#xe0;" horiz-adv-x="464" 
 />
    <glyph glyph-name="aacute" unicode="&#xe1;" horiz-adv-x="464" 
 />
    <glyph glyph-name="acircumflex" unicode="&#xe2;" horiz-adv-x="464" 
 />
    <glyph glyph-name="atilde" unicode="&#xe3;" horiz-adv-x="463" 
 />
    <glyph glyph-name="adieresis" unicode="&#xe4;" horiz-adv-x="464" 
 />
    <glyph glyph-name="aring" unicode="&#xe5;" horiz-adv-x="464" 
 />
    <glyph glyph-name="ae" unicode="&#xe6;" horiz-adv-x="804" 
 />
    <glyph glyph-name="ccedilla" unicode="&#xe7;" horiz-adv-x="439" 
 />
    <glyph glyph-name="egrave" unicode="&#xe8;" horiz-adv-x="451" 
 />
    <glyph glyph-name="eacute" unicode="&#xe9;" horiz-adv-x="451" 
 />
    <glyph glyph-name="ecircumflex" unicode="&#xea;" horiz-adv-x="451" 
 />
    <glyph glyph-name="edieresis" unicode="&#xeb;" horiz-adv-x="451" 
 />
    <glyph glyph-name="igrave" unicode="&#xec;" horiz-adv-x="167" 
 />
    <glyph glyph-name="iacute" unicode="&#xed;" horiz-adv-x="164" 
 />
    <glyph glyph-name="icircumflex" unicode="&#xee;" horiz-adv-x="178" 
 />
    <glyph glyph-name="idieresis" unicode="&#xef;" horiz-adv-x="189" 
 />
    <glyph glyph-name="eth" unicode="&#xf0;" horiz-adv-x="452" 
 />
    <glyph glyph-name="ntilde" unicode="&#xf1;" horiz-adv-x="494" 
 />
    <glyph glyph-name="ograve" unicode="&#xf2;" horiz-adv-x="455" 
 />
    <glyph glyph-name="oacute" unicode="&#xf3;" horiz-adv-x="455" 
d="M440 217v0q1 -2 1 -4t-1 -5v0v0q0 -19 -4 -38q-1 -8 -4 -17q-11 -37 -34 -68v0q-18 -24 -42 -42q-31 -23 -68 -34q-9 -3 -17 -5q-21 -4 -43 -4v0q-22 0 -42 4q-9 2 -17 5q-38 11 -68 34q-25 18 -43 42q-23 31 -34 68q-2 9 -4 17q-4 21 -4 43q0 21 4 42q2 9 4 17
q11 38 34 68q18 24 43 43q30 23 68 34q8 2 17 4q20 4 42 4v0q22 0 43 -4q8 -2 17 -4q37 -11 68 -34q24 -19 42 -43q23 -30 34 -68q3 -8 4 -17q4 -18 4 -38v0v0zM348 170v0q8 20 8 43q0 22 -8 42q-2 6 -5 13q-20 40 -60 60q-6 3 -12 5q-20 7 -43 7v0q-22 0 -42 -7
q-7 -2 -13 -5q-40 -20 -60 -60q-3 -6 -5 -13q-7 -20 -7 -42q0 -23 7 -43q2 -6 5 -12v0q20 -41 60 -60v0q6 -3 13 -6q20 -7 42 -7v0q23 0 43 7l12 6v0q40 19 60 60q3 6 5 12zM228 505v0q-18 0 -30 12.5t-12 30.5t12 30l85 85v0q13 12 30 12q18 0 30.5 -12t12.5 -30
q0 -17 -13 -30v0l-84 -84l-2 -2q-12 -12 -29 -12z" />
    <glyph glyph-name="ocircumflex" unicode="&#xf4;" horiz-adv-x="452" 
 />
    <glyph glyph-name="otilde" unicode="&#xf5;" horiz-adv-x="460" 
 />
    <glyph glyph-name="odieresis" unicode="&#xf6;" horiz-adv-x="455" 
 />
    <glyph glyph-name="divide" unicode="&#xf7;" horiz-adv-x="505" 
 />
    <glyph glyph-name="oslash" unicode="&#xf8;" horiz-adv-x="455" 
 />
    <glyph glyph-name="ugrave" unicode="&#xf9;" horiz-adv-x="481" 
 />
    <glyph glyph-name="uacute" unicode="&#xfa;" horiz-adv-x="481" 
 />
    <glyph glyph-name="ucircumflex" unicode="&#xfb;" horiz-adv-x="481" 
 />
    <glyph glyph-name="udieresis" unicode="&#xfc;" horiz-adv-x="481" 
 />
    <glyph glyph-name="yacute" unicode="&#xfd;" horiz-adv-x="486" 
 />
    <glyph glyph-name="thorn" unicode="&#xfe;" horiz-adv-x="495" 
 />
    <glyph glyph-name="ydieresis" unicode="&#xff;" horiz-adv-x="483" 
 />
    <glyph glyph-name="Aogonek" unicode="&#x104;" 
d="M561 -20v0q-18 0 -30.5 -12.5t-12.5 -29.5q0 -18 13 -30l85 -85v0q12 -13 30 -13q17 0 29.5 12.5t12.5 30.5q0 17 -12 30v0l-84 84l-2 2q-12 11 -29 11zM651 42v0q0 9 -3 17l-2 4l-11 22l-3 7l-38 75l-2 3l-2 4l-23 47l-1 1l-3 7l-2 4l-11 22l-3 7l-38 75l-2 3l-2 4
l-23 47v0l-1 1l-3 7l-2 4l-11 22l-3 7l-38 75l-2 3l-2 4l-23 47l-1 1l-3 7l-2 4v0l-11 22l-21 42l-9 17l-1 4q-14 22 -38 22t-37 -22l-2 -4l-8 -17v0l-22 -42l-11 -22l-1 -4l-4 -7l-1 -1l-23 -47l-2 -4l-1 -3l-38 -75l-4 -7l-11 -22l-1 -4l-4 -7l-1 -1v0l-23 -47l-2 -4
l-1 -3l-38 -75l-4 -7l-11 -22l-1 -4l-4 -7l-1 -1l-23 -47l-2 -4l-1 -3l-38 -75l-4 -7l-11 -22q-5 -10 -5 -21q0 -17 12.5 -29.5t30.5 -12.5q24 0 37 22l2 4l3 6l1 2l23 47l2 4l2 3l38 75l3 7h271q18 0 30.5 12.5t12.5 29.5q0 18 -12.5 30.5t-30.5 12.5h-229l2 3l38 75l3 7
l11 21v0l2 5v0l3 6l1 2v0l23 47l2 4l2 3l38 75l3 7l11 22l2 4l3 6l4 -6l1 -4l11 -22l4 -7l38 -75l1 -3l2 -4l23 -47l1 -2l4 -6l1 -4l11 -22l4 -7l38 -75l1 -3l26 -53l3 -6l2 -4h1l10 -22l4 -7l38 -75l1 -3l2 -4l23 -47l1 -2l4 -6l1 -4q13 -22 38 -22q17 0 29.5 12.5
t12.5 29.5z" />
    <glyph glyph-name="Cacute" unicode="&#x106;" horiz-adv-x="586" 
d="M360 723v0q-18 0 -30.5 12.5t-12.5 29.5q0 18 13 30l85 85v0q12 13 30 13q17 0 29.5 -12.5t12.5 -30.5q0 -17 -12 -30v0l-84 -84l-2 -2q-12 -11 -29 -11zM587 42v0q0 18 -12.5 30.5t-30.5 12.5h-212q-15 0 -30 2h-1q-20 2 -39 8q-8 2 -15 4q-4 2 -8 3v0q-41 16 -73 44
l-4 4q-11 9 -20 20l-4 4q-28 33 -44 73q-1 4 -3 8q-2 7 -4 15q-6 19 -8 40v0q-2 15 -2 30t2 30v0q2 20 7 39v0h0.5h0.5l4 16q2 4 3 8q16 40 44 73l4 4q9 10 20 20l4 4q33 27 73 43q4 2 8 3q7 3 15 5q19 6 40 8q15 2 30 2h212q18 0 30.5 12.5t12.5 29.5q0 18 -12.5 30.5
t-30.5 12.5h-212q-16 0 -32 -2q-17 -1 -33 -4v0q-10 -2 -20 -5q-6 -1 -11 -3q-39 -12 -74 -32v0v0v0v0q-29 -16 -54 -38l-1 -1l-3 -3h-1q-12 -11 -23 -24v0q-2 -1 -3 -3l-2 -2q-21 -24 -38 -53v0v0v0v0q-20 -35 -31 -74q-2 -5 -3 -11q-3 -10 -5 -21v0q-3 -16 -5 -32
q-1 -16 -1 -32t1 -32q2 -16 5 -33v0q2 -10 5 -20q1 -6 3 -11q11 -39 31 -74v0v0v0v0v0v0q17 -29 38 -53l2 -2t1 -2l2 -2v0v0v0q11 -12 24 -23v0q1 -2 3 -3l2 -2q24 -21 53 -37v0v0v-1v0q35 -20 74 -31q5 -2 11 -3q10 -3 20 -5v0q16 -3 33 -5q16 -1 32 -1h212q18 0 30.5 12.5
t12.5 29.5z" />
    <glyph glyph-name="Eogonek" unicode="&#x118;" horiz-adv-x="655" 
d="M413 -187v0q-18 0 -30.5 12.5t-12.5 29.5q0 18 13 30l85 85v0q12 13 30 13q17 0 29.5 -12.5t12.5 -30.5q0 -17 -12 -30v0l-84 -84l-2 -2q-12 -11 -29 -11zM218 382v0h312q18 0 30.5 -12.5t12.5 -29.5q0 -18 -12.5 -30.5t-30.5 -12.5h-312q-17 0 -29.5 12.5t-12.5 30.5
q0 17 12.5 29.5t29.5 12.5zM658 42v0q0 17 -11 29t-28 14h-471v40v2v425v3v40h467q18 0 30.5 12.5t12.5 29.5t-12 29t-29 14h-2h-510h-2q-17 -2 -28.5 -14t-11.5 -29v-595q0 -17 12.5 -29.5t29.5 -12.5h510q18 0 30.5 12.5t12.5 29.5z" />
    <glyph glyph-name="dotlessi" unicode="&#x131;" horiz-adv-x="156" 
 />
    <glyph glyph-name="Lslash" unicode="&#x141;" horiz-adv-x="539" 
d="M573 42q0 18 -12.5 30.5t-30.5 12.5h-340h-4h-38v223v104l-81 -161l-4 -2v-207q0 -17 11 -29q12 -12 29 -13h2h425h3q17 1 28.5 13t11.5 29zM63 352v-103q-12 -8 -28 -5q-17 3 -27 18q-10 14 -7 31q3 18 17 28zM63 352v-103l85 163v225q0 18 -12.5 30.5t-30.5 12.5
q-17 0 -29.5 -12.5t-12.5 -30.5v-285zM148 412l126 88q14 10 32 7q17 -3 27 -17q14 -20 7 -32q-13 -25 -18 -28l-142 -100l-32 -22v104z" />
    <glyph glyph-name="Nacute" unicode="&#x143;" horiz-adv-x="676" 
d="M360 723v0q-18 0 -30.5 12.5t-12.5 29.5q0 18 13 30l85 85v0q12 13 30 13q17 0 29.5 -12.5t12.5 -30.5q0 -17 -12 -30v0l-84 -84l-2 -2q-12 -11 -29 -11zM657 637v0q0 18 -12 30.5t-30 12.5t-30 -12.5t-12 -30.5v-480l-11 13l-7 8l-55 64l-11 13l-2 1l-10 13l-55 64l-6 7
l-13 16l-6 6l-52 60l-2 3l-5 6l-17 20v0v0l-3 4l-2 1l-46 54v0v0l-37 44v0h-1l-34 40l-1 1v0l-47 56l-2 2l-10 11v0v1h-1q-13 15 -32 15q-18 0 -30 -12.5t-12 -30.5v-595q0 -17 12 -29.5t30 -12.5t30.5 12.5t12.5 29.5v480l10 -12l7 -8l55 -64l11 -13h2v-2l10 -12l55 -64
l6 -7l14 -16l5 -6l52 -60l2 -3l6 -7v0l16 -19v0l4 -4l1 -2l46 -53v0l37 -44v1l1 -1l34 -40l1 -1v-1l47 -55l3 -2l9 -12q13 -15 33 -15q18 0 30 12.5t12 29.5v595z" />
    <glyph glyph-name="Zacute" unicode="&#x179;" horiz-adv-x="619" 
d="M331 723v0q-18 0 -30.5 12.5t-12.5 29.5q0 18 13 30l85 85v0q12 13 30 13q17 0 29.5 -12.5t12.5 -30.5q0 -17 -12 -30v0l-84 -84l-2 -2q-12 -11 -29 -11zM620 42v0q0 18 -12.5 30.5t-29.5 12.5h-418l437 510l11 12l4 5v0q8 11 8 25q0 18 -12.5 30.5t-29.5 12.5h-510
q-18 0 -30.5 -12.5t-12.5 -30.5q0 -17 12.5 -29.5t30.5 -12.5h417l-437 -510l-13 -16q-10 -11 -10 -27q0 -17 12.5 -29.5t30.5 -12.5h510q17 0 29.5 12.5t12.5 29.5z" />
    <glyph glyph-name="Zdotaccent" unicode="&#x17b;" horiz-adv-x="619" 
d="M283 784q0 22 15.5 36t37.5 14t37 -14t16 -35q1 -23 -15 -37t-38 -14t-37.5 14t-15.5 36zM620 42q0 18 -12.5 30.5t-29.5 12.5h-418l437 510l11 12l4 5q8 11 8 25q0 18 -12.5 30.5t-29.5 12.5h-510q-18 0 -30.5 -12.5t-12.5 -30.5q0 -17 12.5 -29.5t30.5 -12.5h417
l-437 -510l-13 -16q-10 -11 -10 -27q0 -17 12.5 -29.5t30.5 -12.5h510q17 0 29.5 12.5t12.5 29.5z" />
    <glyph glyph-name="uni022E" unicode="&#x22e;" horiz-adv-x="711" 
d="M404 752l2 -4zM327 720q4 -6 15 -13q11 -5 32 -4q34 3 97 38q8 7 17 23q0 5 -3.5 14t-15.5 15q-11 6 -33 4q-32 -2 -97 -38q-7 -6 -16 -22q0 -11 4 -17zM344 726.5q5 -7.5 26 -6t46.5 11.5t40 22t10 20t-26 6t-47 -11.5t-40 -22t-9.5 -20zM360 680v0q140 0 240 -99.5
t100 -240.5t-100 -240.5t-240 -99.5q-141 0 -240.5 99.5t-99.5 240.5t99.5 240.5t240.5 99.5zM360 85v0q105 0 180 74.5t75 180.5q0 105 -75 180t-180 75q-106 0 -180.5 -75t-74.5 -180q0 -106 74.5 -180.5t180.5 -74.5z" />
    <glyph glyph-name="gravecomb" unicode="&#x300;" horiz-adv-x="230" 
 />
    <glyph glyph-name="acutecomb" unicode="&#x301;" horiz-adv-x="230" 
 />
    <glyph glyph-name="uni0302" unicode="&#x302;" horiz-adv-x="400" 
 />
    <glyph glyph-name="tildecomb" unicode="&#x303;" horiz-adv-x="540" 
 />
    <glyph glyph-name="uni0304" unicode="&#x304;" horiz-adv-x="400" 
 />
    <glyph glyph-name="uni0307" unicode="&#x307;" horiz-adv-x="155" 
 />
    <glyph glyph-name="uni0308" unicode="&#x308;" horiz-adv-x="346" 
 />
    <glyph glyph-name="uni030A" unicode="&#x30a;" horiz-adv-x="289" 
 />
    <glyph glyph-name="uni030C" unicode="&#x30c;" horiz-adv-x="400" 
 />
    <glyph glyph-name="uni0327" unicode="&#x327;" horiz-adv-x="230" 
 />
    <glyph glyph-name="endash" unicode="&#x2013;" horiz-adv-x="505" 
 />
    <glyph glyph-name="emdash" unicode="&#x2014;" horiz-adv-x="635" 
 />
    <glyph glyph-name="quoteleft" unicode="&#x2018;" horiz-adv-x="154" 
 />
    <glyph glyph-name="quoteright" unicode="&#x2019;" horiz-adv-x="154" 
 />
    <glyph glyph-name="quotesinglbase" unicode="&#x201a;" horiz-adv-x="203" 
 />
    <glyph glyph-name="quotedblleft" unicode="&#x201c;" horiz-adv-x="321" 
 />
    <glyph glyph-name="quotedblright" unicode="&#x201d;" horiz-adv-x="321" 
 />
    <glyph glyph-name="quotedblbase" unicode="&#x201e;" horiz-adv-x="347" 
 />
    <glyph glyph-name="dagger" unicode="&#x2020;" horiz-adv-x="465" 
 />
    <glyph glyph-name="daggerdbl" unicode="&#x2021;" horiz-adv-x="40" 
 />
    <glyph glyph-name="bullet" unicode="&#x2022;" horiz-adv-x="40" 
 />
    <glyph glyph-name="ellipsis" unicode="&#x2026;" horiz-adv-x="561" 
 />
    <glyph glyph-name="guilsinglleft" unicode="&#x2039;" horiz-adv-x="282" 
 />
    <glyph glyph-name="guilsinglright" unicode="&#x203a;" horiz-adv-x="279" 
 />
    <glyph glyph-name="fraction" unicode="&#x2044;" horiz-adv-x="548" 
 />
    <glyph glyph-name="fraction" unicode="&#x2215;" horiz-adv-x="548" 
 />
    <glyph glyph-name="franc" unicode="&#x20a3;" horiz-adv-x="725" 
 />
    <glyph glyph-name="lira" unicode="&#x20a4;" horiz-adv-x="508" 
 />
    <glyph glyph-name="peseta" unicode="&#x20a7;" horiz-adv-x="1201" 
 />
    <glyph glyph-name="Euro" unicode="&#x20ac;" horiz-adv-x="590" 
 />
    <glyph glyph-name="uni2116" unicode="&#x2116;" horiz-adv-x="40" 
 />
    <glyph glyph-name="trademark" unicode="&#x2122;" horiz-adv-x="540" 
 />
    <glyph glyph-name="partialdiff" unicode="&#x2202;" horiz-adv-x="40" 
 />
    <glyph glyph-name="Delta" unicode="&#x2206;" horiz-adv-x="635" 
 />
    <glyph glyph-name="product" unicode="&#x220f;" horiz-adv-x="550" 
 />
    <glyph glyph-name="summation" unicode="&#x2211;" horiz-adv-x="554" 
 />
    <glyph glyph-name="minus" unicode="&#x2212;" horiz-adv-x="420" 
 />
    <glyph glyph-name="radical" unicode="&#x221a;" horiz-adv-x="592" 
 />
    <glyph glyph-name="infinity" unicode="&#x221e;" horiz-adv-x="805" 
 />
    <glyph glyph-name="integral" unicode="&#x222b;" horiz-adv-x="422" 
 />
    <glyph glyph-name="approxequal" unicode="&#x2248;" horiz-adv-x="576" 
 />
    <glyph glyph-name="lessequal" unicode="&#x2264;" horiz-adv-x="485" 
 />
    <glyph glyph-name="greaterequal" unicode="&#x2265;" horiz-adv-x="485" 
 />
    <glyph glyph-name="uniFB01" unicode="&#xfb01;" horiz-adv-x="550" 
 />
    <glyph glyph-name="uniFB02" unicode="&#xfb02;" horiz-adv-x="553" 
 />
    </font>
</defs>
</svg>
